<?xml version="1.0" standalone="no"?>
<!DOCTYPE svg PUBLIC "-//W3C//DTD SVG 1.1//EN" "http://www.w3.org/Graphics/SVG/1.1/DTD/svg11.dtd" >
<svg xmlns="http://www.w3.org/2000/svg">
<metadata>Generated by IcoMoon</metadata>
<defs>
<font id="icomoon" horiz-adv-x="1024">
<font-face units-per-em="1024" ascent="960" descent="-64" />
<missing-glyph horiz-adv-x="1024" />
<glyph unicode="&#x20;" horiz-adv-x="512" d="" />
<glyph unicode="&#xe900;" horiz-adv-x="1600" d="M0 864c0 53.019 42.981 96 96 96h1408c53.021 0 96-42.981 96-96v-832c0-53.021-42.979-96-96-96h-1408c-53.019 0-96 42.979-96 96v832z" />
<glyph unicode="&#xe901;" horiz-adv-x="1600" d="M724.464 210.086v149.069l-68.918-73.414 68.918-75.654z" />
<glyph unicode="&#xe902;" horiz-adv-x="1600" d="M435.629 340.454v-33.558l98.541 0.205v-38.435h-98.541v-36.81h110.474l51.43 54.502-49.373 54.096h-112.531z" />
<glyph unicode="&#xe903;" horiz-adv-x="1600" d="M854.278 622.925c5.76 3.254 9.258 9.76 9.258 17.692s-3.706 13.626-9.258 16.676c-5.35 3.050-13.373 3.254-21.398 3.254h-55.546v-41.488h54.931c8.64 0 15.84 0.406 22.013 3.866z" />
<glyph unicode="&#xe904;" horiz-adv-x="1600" d="M114.699 593.645h61.512l-30.859 74.027-30.653-74.027z" />
<glyph unicode="&#xe905;" horiz-adv-x="1600" d="M828.15 340.454h-58.63v-46.774h58.221c17.075 0 27.773 8.134 27.773 24.198-0.208 16.067-11.315 22.576-27.363 22.576z" />
<glyph unicode="&#xe906;" horiz-adv-x="1600" d="M126.218 518.192h38.676l17.486-41.69h151.207v31.725l13.578-31.725h78.176l13.578 32.131v-32.131h375.654v67.923h7.405c5.35 0 6.79-0.608 6.79-8.947v-58.976h194.202v16.067c15.43-8.339 39.706-16.067 72.211-16.067h81.67l17.693 41.69h38.678l17.485-41.69h156.966v39.453l24.070-39.453h126.109v259.498h-124.669v-30.505l-17.898 30.505h-128.166v-30.505l-15.635 30.505h-173.219c-29.213 0-54.928-3.864-75.296-14.846v14.846h-119.318v-14.846c-13.99 11.185-31.475 14.846-51.226 14.846h-436.752l-29.626-66.908-29.626 66.908h-137.423v-30.505l-15.635 30.505h-117.263l-54.106-123.037v-136.461h76.735l17.487 41.69zM1031.405 677.633c14.4 14.846 37.443 21.76 68.506 21.76h42.998v-39.86h-42.176c-16.662 0-25.92-2.44-34.765-11.185-7.818-7.728-13.168-22.575-13.168-42.099 0-19.93 3.91-33.962 12.755-43.722 6.582-7.322 19.133-9.558 31.27-9.558h20.16l63.363 146.424h67.066l76.326-176.117v176.117h68.71l78.998-129.544v129.544h46.288v-186.286h-64.186l-84.963 139.512v-139.512h-91.549l-17.28 41.693h-93.606l-17.28-41.693h-52.253c-22.013 0-49.786 5.085-65.421 20.746-15.84 15.862-23.866 37.216-23.866 70.976 0 27.658 4.938 52.875 24.070 72.804zM939.242 699.394h46.080v-186.286h-46.080v186.286zM732.486 699.394h103.686c22.835 0 39.706-0.813 54.106-8.948 14.4-8.338 23.248-20.54 23.248-41.284 0-29.488-20.163-44.742-32.093-49.418 9.872-3.661 18.307-10.371 22.218-15.862 6.378-8.95 7.405-17.491 7.405-33.76v-37.014h-45.258v23.59c0 10.982 1.027 27.254-7.408 35.997-6.378 6.714-16.253 8.134-32.71 8.134h-48.346v-67.722h-45.053v186.286h0.205zM551.040 699.394h150.176v-38.843h-105.328v-33.555h102.656v-38.234h-102.656v-36.81l105.328 0.202v-38.842h-150.176v186.082zM81.37 513.107h-48.962l80.438 186.286h67.066l76.324-176.117v176.117h73.649l58.63-126.293 54.106 126.293h74.886v-186.286h-46.083v145.816l-65.216-145.816h-39.498l-65.421 146.020v-146.020h-91.753l-17.281 41.693h-93.604l-17.281-41.693z" />
<glyph unicode="&#xe907;" horiz-adv-x="1600" d="M1212.851 667.672l-30.653-74.027h61.306l-30.653 74.027z" />
<glyph unicode="&#xe908;" horiz-adv-x="1600" d="M1532.342 336.182c-4.73-3.050-6.787-7.523-6.787-13.421 0-6.915 4.115-11.795 9.875-13.83 4.525-1.626 9.667-2.032 17.28-2.032l24.070-0.611c24.893-0.611 41.35-4.678 51.43-15.050 1.44-1.424 2.675-2.845 3.702-4.269v52.467h-81.67c-8.026 0-13.581-0.406-17.901-3.254z" />
<glyph unicode="&#xe909;" horiz-adv-x="1600" d="M1571.229 193.219h-86.816v39.859h86.403c8.435 0 14.4 1.219 18.106 4.474 3.085 2.848 5.347 6.915 5.347 12.202 0 5.491-2.262 9.763-5.555 12.406-3.29 2.848-8.022 4.067-15.635 4.067-41.968 1.219-94.838-1.424-94.838 57.757 0 26.64 17.075 55.315 64.394 55.315h89.488v36.608h-83.318c-24.893 0-43.613-5.696-56.368-14.848v14.848h-122.816c-19.546 0-42.998-4.678-53.901-14.848v14.848h-219.92v-14.848c-17.485 12.205-46.906 14.848-60.893 14.848h-145.037v-14.848c-13.782 13.219-44.23 14.848-62.95 14.848h-162.525l-37.235-39.862-34.56 39.862h-242.346v-259.498h238.026l38.058 40.47 36.208-40.269 146.477-0.202v61.213h14.605c19.338 0 42.381 0.406 62.336 8.947v-70.16h121.376v67.923h5.965c7.408 0 8.026-0.608 8.026-7.523v-60.4h367.216c23.043 0 47.936 5.898 61.514 16.47v-16.47h116.438c24.070 0 47.933 3.456 66.038 11.997v48.198c-11.728-15.862-32.298-23.386-61.306-23.386zM825.27 255.45h-55.955v-62.23h-87.638l-55.136 61.213-57.603-61.418h-178.362v186.285h181.037l55.136-61.213 57.395 61.213h144.006c35.386 0 75.501-10.166 75.501-61.619-0.205-51.453-39.085-62.23-78.381-62.23zM1096.006 263.786c6.374-8.947 7.405-17.488 7.61-33.757v-36.81h-45.258v23.59c0 10.982 1.027 27.251-7.408 35.997-6.582 6.71-16.253 8.134-32.71 8.134h-48.346v-67.722h-45.053v186.285h103.686c22.835 0 39.498-0.813 54.106-9.152 14.4-8.339 23.245-20.541 23.245-41.283 0-29.488-20.16-44.742-31.885-49.421 9.872-3.658 18.307-10.371 22.013-15.862zM1280.95 340.458h-105.123v-33.555h102.861v-38.438h-102.861v-36.81h105.331v-38.64h-150.179v186.285h150.179v-38.842h-0.208zM1395.334 193.219h-87.638v39.859h87.226c8.435 0 14.4 1.219 18.106 4.474 3.085 2.848 5.347 6.915 5.347 12.202 0 5.491-2.262 9.763-5.555 12.406-3.29 2.848-8.022 4.067-15.635 4.067-41.968 1.219-94.838-1.424-94.838 57.757 0 26.845 17.075 55.315 64.394 55.315h90.106v-39.859h-82.496c-8.227 0-13.578-0.205-18.102-3.050-4.733-3.053-6.582-7.526-6.582-13.424 0-6.915 4.112-11.795 9.875-13.827 4.73-1.629 9.667-2.035 17.28-2.035l24.070-0.611c24.893-0.608 41.35-4.675 51.43-15.046 8.845-9.357 13.578-20.134 13.578-39.456 0.205-39.859-24.893-58.771-70.563-58.771z" />
<glyph unicode="&#xe90a;" horiz-adv-x="1600" d="M1046.835 337.402c-5.347 2.848-13.578 3.053-21.395 3.053h-55.546v-41.488h54.928c8.64 0 16.048 0.202 22.013 3.661 5.76 3.254 9.258 9.76 9.258 17.693-0.205 8.134-3.702 13.827-9.258 17.082z" />
<glyph unicode="&#xe90b;" horiz-adv-x="1600" d="M0 864c0 53.019 42.981 96 96 96h1408c53.021 0 96-42.981 96-96v-832c0-53.021-42.979-96-96-96h-1408c-53.019 0-96 42.979-96 96v832z" />
<glyph unicode="&#xe90c;" horiz-adv-x="1600" d="M954.896 339.258c-74.896-54.371-182.131-83.254-274.045-83.254-129.363 0-246.81 47.574-335.322 127.434-6.806 6.797 0.003 15.293 6.81 10.195 95.322-56.074 214.47-88.355 335.322-88.355 81.702 0 173.616 16.992 257.021 52.672 11.914 3.398 22.128-10.195 10.214-18.691z" />
<glyph unicode="&#xe90d;" horiz-adv-x="1600" d="M985.536 374.941c-10.214 11.894-62.982 5.098-86.81 3.398-6.81-1.699-8.512 5.098-1.702 10.192 42.554 30.586 112.339 20.39 120.851 11.894 8.509-10.192-1.702-79.859-42.554-113.84-6.81-5.098-11.917-1.699-8.512 5.098 6.81 20.39 27.235 69.664 18.726 83.258z" />
<glyph unicode="&#xe90e;" horiz-adv-x="1600" d="M900.429 597.523v28.883c0 5.098 3.405 6.797 6.81 6.797h129.363c3.402 0 6.806-3.398 6.806-6.797v-25.485c0-3.398-3.405-10.195-10.211-18.691l-68.086-96.848c25.533 0 51.066-3.398 74.896-15.293 5.104-3.398 6.806-6.797 6.806-11.894v-30.586c0-3.398-5.107-8.496-10.211-6.797-40.851 20.39-93.619 23.789-137.875 0-5.107-1.699-8.509 1.699-8.509 6.797v30.586c0 5.098 0 11.894 5.107 20.39l78.298 112.141h-68.086c-1.702 0-5.107 3.398-5.107 6.797z" />
<glyph unicode="&#xe90f;" horiz-adv-x="1600" d="M425.533 417.418h-39.149c-3.405 0-6.81 3.398-6.81 6.794v202.195c0 3.398 3.405 6.797 6.81 6.797h37.446c3.405 0 6.81-3.398 6.81-6.797v-27.184c10.211 25.485 27.235 37.379 52.765 37.379 25.533 0 40.851-11.894 51.066-37.379 10.211 25.485 30.637 37.379 54.467 37.379 17.021 0 34.042-6.797 45.958-22.086 11.914-16.992 10.211-42.48 10.211-62.867v-127.437c0-3.395-3.405-6.794-6.806-6.794h-39.149c-3.405 0-6.81 3.398-6.81 6.794v107.046c0 8.496 0 30.582-1.702 37.379-3.405 13.594-11.914 16.992-23.83 16.992-10.211 0-20.426-6.797-23.83-16.992-3.402-10.195-3.402-27.184-3.402-39.078v-107.046c0-3.395-3.405-6.794-6.81-6.794h-39.149c-3.405 0-6.81 3.398-6.81 6.794v107.046c0 22.090 3.405 56.070-23.83 56.070-28.934 0-27.232-32.282-27.232-56.070v-107.046c-3.405-1.699-6.81-5.094-10.214-5.094z" />
<glyph unicode="&#xe910;" horiz-adv-x="1600" d="M1157.446 638.304c59.574 0 90.214-50.976 90.214-113.843 0-61.168-35.744-110.442-90.214-110.442-57.872 0-88.512 50.973-88.512 113.84-1.699 61.168 30.64 110.445 88.512 110.445zM1157.446 595.824c-28.934 0-30.637-39.078-30.637-64.566 0-25.485 0-78.16 30.637-78.16 30.64 0 32.342 42.48 32.342 67.965 0 16.992 0 37.382-5.107 54.371-5.107 15.293-15.318 20.39-27.235 20.39z" />
<glyph unicode="&#xe911;" horiz-adv-x="1600" d="M1324.253 417.418h-39.149c-3.405 0-6.806 3.398-6.806 6.797v202.195c0 3.398 3.402 6.797 6.806 6.797h37.446c3.405 0 6.81-1.699 6.81-5.098v-30.586c11.917 27.187 27.235 40.781 54.467 40.781 17.024 0 35.747-6.797 45.958-23.789 10.214-16.992 10.214-44.176 10.214-62.867v-127.434c0-3.398-3.405-6.797-6.81-6.797h-39.149c-3.405 0-6.81 3.398-6.81 6.797v110.442c0 22.090 3.405 54.371-25.533 54.371-10.211 0-18.723-6.797-22.125-16.989-5.107-11.894-6.81-25.488-6.81-39.082v-108.742c-1.702-3.398-5.107-6.797-8.512-6.797z" />
<glyph unicode="&#xe912;" horiz-adv-x="1600" d="M796.595 514.266c0-15.293 0-28.886-6.81-42.477-6.81-11.894-17.021-18.691-27.235-18.691-15.318 0-23.827 11.894-23.827 28.883 0 33.984 30.637 39.082 59.574 39.082v-6.797h-1.702zM835.744 417.414c-3.405-1.699-6.81-1.699-8.512-1.699-13.616 10.195-15.318 15.293-22.128 27.187-22.128-22.090-37.446-28.886-64.682-28.886-34.042 0-59.574 20.39-59.574 61.168 0 32.285 17.021 54.374 42.554 64.57 22.128 10.192 51.066 11.891 74.896 13.59v5.098c0 10.195 0 20.39-5.107 28.886-5.107 6.797-13.619 10.195-22.128 10.195-15.318 0-28.938-8.496-32.339-23.789 0-3.398-3.405-6.797-6.81-6.797l-39.149 3.398c-3.405 0-6.81 3.398-5.107 8.496 8.512 45.875 51.066 61.168 88.512 61.168 18.723 0 44.256-5.098 59.574-20.39 18.723-18.688 17.021-42.477 17.021-67.965v-61.168c0-18.691 8.509-27.184 15.318-37.379 1.702-3.398 3.405-8.496 0-10.195-10.211-6.797-23.83-18.691-32.339-25.488z" />
<glyph unicode="&#xe913;" horiz-adv-x="1600" d="M277.446 514.266c0-15.293 0.001-28.886-6.808-42.477-6.809-11.894-17.022-18.691-27.235-18.691-15.319 0-23.829 11.894-23.829 28.883 0 33.984 30.638 39.082 59.574 39.082v-6.797h-1.703zM316.596 417.414c-3.404-1.699-6.809-1.699-10.213-1.699-13.617 10.195-15.319 15.293-22.128 27.187-22.128-22.090-37.447-28.886-64.681-28.886-34.043 0-59.575 20.39-59.575 61.168 0 32.285 17.021 54.374 42.553 64.57 22.128 10.192 51.063 11.891 74.893 13.59v5.098c0 10.195 0 20.39-5.106 28.886-5.106 6.797-13.617 10.195-22.127 10.195-15.319 0-28.937-8.496-32.341-23.789 0-3.398-3.404-6.797-6.808-6.797l-39.149 3.398c-3.404 0-6.808 3.398-5.106 8.496 8.511 45.875 51.064 61.168 88.511 61.168 18.724 0 44.255-5.098 59.575-20.39 18.722-18.688 17.020-42.477 17.020-67.965v-61.168c0-18.691 8.512-27.184 15.322-37.379 1.702-3.398 3.405-8.496 0-10.195-8.512-6.797-22.128-18.691-30.639-25.488z" />
<glyph unicode="&#xe914;" horiz-adv-x="1600" d="M0 864c0 53.019 42.981 96 96 96h1408c53.021 0 96-42.981 96-96v-832c0-53.021-42.979-96-96-96h-1408c-53.019 0-96 42.979-96 96v832z" />
<glyph unicode="&#xe915;" horiz-adv-x="1600" d="M377.725 521.898l32.592-80.042h-64.928l32.336 80.042zM1054.57 518.57h-125.347v-35.283h123.325v-52.864h-123.075v-39.341h125.35v-31.53l87.45 95.786-87.45 99.84-0.253-36.608zM462.442 618.41h168.211l37.347-82.56 34.611 82.816h436.63l45.389-50.771 46.947 50.771h200.547l-148.166-164.352 146.653-163.328h-203.539l-45.389 50.774-47.366-50.774h-712l-20.8 50.774h-47.581l-20.842-50.774h-164.674l138.358 327.68h144.421l11.242-0.256zM827.2 572.416h-94.275l-63.155-150.87-68.422 150.87h-93.558v-205.226l-86.736 205.226h-83.917l-100.294-235.178h65.474l20.801 50.771h109.306l20.8-50.771h114.525v167.891l73.725-168.147h50.106l73.264 167.635v-167.68h61.389l1.011 235.52-0.042-0.042zM1220.464 454.314l106.566 118.102h-76.714l-67.411-73.642-65.181 73.642h-248.166v-235.434h244.63l67.958 74.154 65.178-74.154h78.947l-105.808 117.331z" />
<glyph unicode="&#xe916;" horiz-adv-x="1600" d="M0 864c0 53.019 42.981 96 96 96h1408c53.021 0 96-42.981 96-96v-832c0-53.021-42.979-96-96-96h-1408c-53.019 0-96 42.979-96 96v832z" />
<glyph unicode="&#xe917;" horiz-adv-x="1600" d="M425.67 614.333c13.392 16.96 22.47 39.738 20.077 63.008-19.59-0.986-43.488-13.094-57.334-30.073-12.426-14.535-23.421-38.257-20.56-60.551 21.99-1.933 43.962 11.133 57.818 27.616z" />
<glyph unicode="&#xe918;" horiz-adv-x="1600" d="M445.498 582.358c-31.946 1.933-59.085-18.362-74.336-18.362-15.258 0-38.611 17.395-63.874 16.922-32.872-0.483-63.37-19.328-80.058-49.286-34.312-59.914-9.060-148.816 24.318-197.619 16.203-24.157 35.733-50.733 61.462-49.776 24.318 0.966 33.845 15.946 63.387 15.946 29.536 0 38.118-15.946 63.856-15.462 26.685 0.483 43.373 24.16 59.574 48.317 18.595 27.542 26.198 54.115 26.675 55.565-0.477 0.483-51.459 20.304-51.936 79.734-0.477 49.77 40.032 73.443 41.939 74.902-22.877 34.288-58.608 38.154-71.008 39.12z" />
<glyph unicode="&#xe919;" horiz-adv-x="1600" d="M763.882 649.703c69.405 0 117.747-48.481 117.747-119.066 0-70.832-49.334-119.565-119.482-119.565h-76.845v-123.85h-55.523v362.481h134.102zM685.302 458.298h63.702c48.349 0 75.853 26.371 75.853 72.090 0 45.709-27.514 71.84-75.606 71.84h-63.949v-143.93z" />
<glyph unicode="&#xe91a;" horiz-adv-x="1600" d="M895.398 362.336c0 46.474 34.95 73.098 99.398 77.117l69.155 4.272v20.099c0 29.376-19.082 45.459-53.040 45.459-28.019 0-48.349-14.563-52.547-36.915h-50.083c1.498 46.963 45.117 81.123 104.118 81.123 63.456 0 104.851-33.658 104.851-85.907v-180.352h-51.306v43.456h-1.238c-14.63-28.381-46.861-46.211-81.814-46.211-51.552 0-87.494 31.136-87.494 77.859zM1063.952 385.693v20.352l-61.718-4.019c-34.714-2.262-52.794-15.315-52.794-38.17 0-22.112 18.835-36.432 48.33-36.432 37.67 0 66.182 24.371 66.182 58.269z" />
<glyph unicode="&#xe91b;" horiz-adv-x="1600" d="M1164.429 190.278v43.446c3.472-0.493 11.891-0.995 16.355-0.995 24.538 0 38.422 10.534 46.854 37.68l4.957 16.070-93.952 263.747h58l65.45-214.010h1.238l65.44 214.010h56.522l-97.424-277.056c-22.314-63.555-47.843-84.41-101.878-84.41-4.214 0-17.853 0.502-21.562 1.517z" />
<glyph unicode="&#xe91c;" horiz-adv-x="1600" d="M0 864c0 53.019 42.981 96 96 96h1408c53.021 0 96-42.981 96-96v-832c0-53.021-42.979-96-96-96h-1408c-53.019 0-96 42.979-96 96v832z" />
<glyph unicode="&#xe91d;" horiz-adv-x="1600" d="M561.088 568.182c10.64 0 19.84-2.013 27.568-6.006 7.76-4.010 14.176-9.421 19.312-16.214 5.072-6.826 8.848-14.829 11.28-23.978 2.416-9.181 3.632-19.062 3.632-29.629 0-16.211-2.8-31.571-8.464-46.010-5.376-14.035-13.213-26.848-23.088-37.754-9.862-10.765-21.603-19.373-34.56-25.344-13.28-6.246-27.68-9.35-43.168-9.35-2 0-5.52 0.051-10.496 0.17-5.718 0.179-11.424 0.704-17.088 1.571-6.88 1.037-13.706 2.454-20.448 4.25-7.053 1.805-13.907 4.403-20.448 7.747l57.488 256.341 51.488 8.465-20.592-90.966c4.285 2.061 8.726 3.718 13.28 4.95 4.464 1.142 9.216 1.757 14.304 1.757zM517.888 417.229c7.76 0 15.072 2.013 21.92 6.006 6.909 3.984 12.97 9.446 17.808 16.045 4.96 6.707 8.928 14.285 11.792 22.749 2.88 8.448 4.32 17.27 4.32 26.454 0 11.264-1.76 20.086-5.312 26.435-3.552 6.333-10.080 9.523-19.616 9.523-3.104 0-7.136-0.63-12.112-1.757-5.011-1.219-9.651-3.773-13.488-7.424l-21.92-96.598c1.328-0.256 2.512-0.496 3.504-0.717 2.349-0.502 4.742-0.749 7.136-0.733l5.968 0.016zM676.288 378.813h-49.168l41.536 185.462h49.52l-41.872-185.462h-0.016zM700.224 586.854c-6.88 0-13.088 2.166-18.608 6.502-5.568 4.317-8.32 10.973-8.32 19.933 0 4.95 0.928 9.558 2.8 13.926 3.642 8.534 10.176 15.277 18.288 18.876 4.112 1.877 8.48 2.816 13.136 2.816 6.88 0 13.056-2.184 18.592-6.519 5.536-4.37 8.32-11.026 8.32-19.916 0-4.95-0.96-9.61-2.848-13.962-3.616-8.525-10.138-15.267-18.24-18.858-4.144-1.894-8.611-2.848-13.12-2.8zM761.248 610.458l51.52 8.464-12.64-54.646h55.152l-9.968-43.008h-54.832l-14.608-64.886c-1.267-4.947-2.045-10.019-2.32-15.139-0.24-4.71 0.32-8.771 1.648-12.17 1.328-3.411 3.696-6.042 7.152-7.917 3.424-1.878 8.336-2.835 14.768-2.835 5.312 0 10.48 0.512 15.472 1.606 4.96 1.024 10 2.49 15.104 4.403l3.664-40.227c-7.062-2.707-14.275-4.944-21.6-6.691-7.76-1.875-16.96-2.797-27.584-2.797-15.28 0-27.12 2.387-35.568 7.2-8.416 4.832-14.384 11.418-17.952 19.763-3.52 8.314-5.088 17.92-4.64 28.723 0.464 10.838 2 22.221 4.64 34.202l32.592 145.955zM853.104 452.848c0 15.974 2.448 31.027 7.312 45.139 4.637 13.699 11.76 26.291 20.96 37.053 9.27 10.707 20.534 19.232 33.072 25.021 12.912 6.109 27.376 9.181 43.328 9.181 8.998 0.118 17.978-0.89 26.752-3.005 7.389-1.837 14.576-4.496 21.44-7.936l-16.96-40.925c-4.432 1.91-9.024 3.584-13.776 5.12-4.768 1.536-10.56 2.304-17.44 2.304-16.416 0-29.392-6.006-39.040-17.971-9.632-11.981-14.48-28.093-14.48-48.333 0-11.981 2.448-21.674 7.328-29.082 4.864-7.408 13.856-11.094 26.912-11.094 11.862 0.051 23.6 2.56 34.56 7.392l3.68-41.952c-6.24-2.56-13.088-4.88-20.608-6.912-7.536-1.962-16.512-2.95-26.928-2.95-13.744 0-25.376 2.115-34.88 6.314-9.52 4.266-17.392 9.949-23.584 17.117-6.234 7.21-10.842 15.843-13.472 25.242-2.8 9.814-4.202 20.019-4.16 30.278h-0.016zM1071.568 373.878c-11.744 0-21.936 1.878-30.592 5.632-8.198 3.44-15.526 8.874-21.408 15.872-5.766 7.034-10.122 15.254-12.8 24.15-2.976 9.955-4.426 20.358-4.288 30.806 0 14.131 2.144 28.262 6.464 42.342 4.157 13.818 10.637 26.714 19.12 38.058 8.458 11.347 18.957 20.778 30.88 27.734 12.16 7.133 26.144 10.752 41.856 10.752 11.52 0 21.664-1.914 30.432-5.667 8.72-3.754 15.904-9.062 21.6-15.872 5.6-6.826 9.888-14.848 12.768-24.15 2.88-9.267 4.32-19.574 4.32-30.838 0-14.096-2.112-28.211-6.304-42.342-4.045-13.76-10.346-26.643-18.608-38.058-8.323-11.405-18.787-20.835-30.72-27.683-12.32-7.168-26.56-10.752-42.72-10.752v0.016zM1096.144 524.784c-6.938 0.115-13.718-2.237-19.264-6.691-5.642-4.611-10.378-10.365-13.936-16.931-3.792-6.826-6.608-14.301-8.512-22.39-1.805-7.549-2.746-15.302-2.8-23.091 0-11.776 1.792-20.925 5.296-27.53 3.568-6.554 9.968-9.846 19.28-9.846 7.328 0 13.728 2.218 19.296 6.707 5.504 4.438 10.144 10.086 13.92 16.912 3.776 6.794 6.624 14.285 8.512 22.394 1.872 8.090 2.816 15.802 2.816 23.091 0 11.741-1.792 20.906-5.328 27.494-3.552 6.586-9.984 9.882-19.28 9.882zM1223.504 378.813h-49.232l41.536 185.462h49.536l-41.856-185.462h0.016zM1247.376 586.854c-6.848 0-13.072 2.166-18.592 6.502-5.536 4.317-8.32 10.973-8.32 19.933 0 4.95 0.96 9.558 2.832 13.926 1.872 4.352 4.368 8.109 7.472 11.283 3.104 3.173 6.72 5.682 10.8 7.593 4.096 1.877 8.48 2.816 13.12 2.816 6.88 0 13.088-2.184 18.608-6.519 5.552-4.37 8.32-11.026 8.32-19.916 0-4.95-0.976-9.61-2.848-13.962-3.597-8.534-10.115-15.28-18.224-18.858-4.112-1.894-8.48-2.8-13.168-2.8zM1300.768 555.811c3.728 1.158 7.904 2.56 12.432 4.077 11.174 3.587 22.637 6.061 34.24 7.392 6.976 0.835 14.912 1.245 23.744 1.245 25.92 0 43.824-8.022 53.696-23.997 9.856-15.99 11.568-37.869 5.152-65.587l-22.608-100.128h-49.504l21.92 98.029c1.328 6.128 2.4 12.032 3.168 17.818 0.81 5.021 0.755 10.157-0.16 15.155-0.81 4.192-2.986 7.942-6.144 10.582-3.248 2.714-8.16 4.045-14.8 4.045-6.4 0-12.928-0.733-19.6-2.134l-32.24-143.494h-49.52l40.224 176.998zM706.576 268.288l-9.648-18.602h-10.432c12.931 24.88 27.030 49.046 42.24 72.413h9.344c0.992-5.222 1.888-10.512 2.72-15.821 1.792-11.757 3.35-23.552 4.672-35.379 0.72-6.554 1.472-13.619 2.256-21.213h-9.648c-0.326 3.146-0.621 6.298-0.88 9.453-0.253 3.056-0.55 6.106-0.896 9.149h-29.728zM735.424 276.445c-1.066 11.402-2.48 22.762-4.24 34.067-7.155-11.062-13.891-22.429-20.192-34.067h24.432zM782.624 248.131c-4.256 0-8.016 0.666-11.264 1.981-3.075 1.2-5.853 3.133-8.128 5.648-2.218 2.522-3.882 5.536-4.88 8.826-1.126 3.766-1.67 7.702-1.616 11.654 0 6.266 0.928 12.256 2.8 17.971 1.872 5.702 4.528 10.752 7.984 15.139 3.44 4.387 7.6 7.901 12.448 10.512 4.864 2.611 10.272 3.926 16.256 3.926 5.12 0 9.2-0.563 12.256-1.674 3.040-1.126 5.232-2.166 6.544-3.139l-3.936-8.362c-4.621 2.995-9.952 4.515-15.36 4.384-4.528 0-8.608-1.126-12.208-3.395-3.581-2.23-6.701-5.216-9.168-8.771-2.48-3.584-4.384-7.629-5.696-12.118-1.29-4.31-1.958-8.803-1.984-13.328 0-13.587 5.552-20.378 16.64-20.378 2.368 0 4.48 0.17 6.352 0.528 1.872 0.342 3.52 0.752 4.976 1.194 1.44 0.461 2.72 0.957 3.84 1.536l2.96 1.453 1.184-8.774c-0.8-0.493-1.824-1.024-3.104-1.568-1.462-0.621-2.957-1.146-4.48-1.571-4.051-1.136-8.224-1.699-12.416-1.674zM837.952 248.131c-3.84-0.074-7.664 0.595-11.28 1.981-3.075 1.2-5.853 3.133-8.128 5.648-2.211 2.525-3.872 5.536-4.864 8.826-1.13 3.763-1.68 7.702-1.632 11.654 0 6.266 0.944 12.256 2.816 17.971 1.872 5.702 4.528 10.752 7.968 15.139 3.437 4.378 7.68 7.958 12.464 10.512 4.848 2.611 10.256 3.926 16.24 3.926 5.12 0 9.2-0.563 12.256-1.674 3.040-1.126 5.232-2.166 6.56-3.139l-3.952-8.362c-4.621 2.995-9.952 4.515-15.36 4.384-4.528 0-8.592-1.126-12.208-3.395-3.574-2.234-6.688-5.216-9.152-8.771-2.496-3.584-4.4-7.629-5.712-12.118-1.286-4.31-1.949-8.806-1.968-13.328 0-13.587 5.552-20.378 16.64-20.378 2.368 0 4.48 0.17 6.352 0.528 1.872 0.342 3.52 0.752 4.96 1.194 1.44 0.461 2.72 0.957 3.84 1.536l2.96 1.453 1.184-8.774c-0.8-0.493-1.824-1.024-3.104-1.568-1.462-0.621-2.957-1.146-4.48-1.571-4.045-1.136-8.214-1.696-12.4-1.674zM864.384 249.702l16.352 72.413h40.272l-1.872-8.464h-30.832l-4.912-21.846h27.376l-1.872-8.243h-27.28l-5.808-25.395h33.088l-1.872-8.464h-42.64zM949.504 322.851c7.952 0 13.92-1.606 17.968-4.813 4.032-3.21 6.064-7.869 6.064-13.997 0-4.742-0.848-8.838-2.512-12.288-1.664-3.44-4.118-6.378-7.136-8.531-3.088-2.221-6.8-3.859-11.136-4.95-4.746-1.13-9.6-1.674-14.464-1.622h-6.8l-6.112-26.963h-9.552l16.16 71.475c2.877 0.72 5.805 1.178 8.752 1.363 2.918 0.211 5.843 0.32 8.768 0.326zM948.32 314.282c-4.656 0-7.472-0.154-8.464-0.426l-6.496-28.739h6.208c2.752 0 5.568 0.256 8.464 0.784 2.88 0.528 5.472 1.45 7.776 2.765 2.285 1.306 4.23 3.194 5.664 5.494 1.574 2.71 2.342 5.862 2.208 9.046 0 3.958-1.376 6.794-4.128 8.515-2.768 1.709-6.496 2.56-11.232 2.56zM1031.776 322.115l-1.872-8.464h-20.576l-14.48-63.949h-9.536l14.464 63.949h-20.576l1.872 8.464h50.704zM1022.912 249.702l16.352 72.413h40.272l-1.872-8.464h-30.816l-4.928-21.846h27.376l-1.872-8.243h-27.28l-5.808-25.395h33.088l-1.872-8.464h-42.64zM1107.888 322.851c10.112 0 17.664-2.528 22.64-7.578 4.992-5.053 7.488-11.862 7.488-20.429 0-5.99-0.88-11.76-2.656-17.29-1.76-5.546-4.528-10.429-8.272-14.678-4.022-4.454-8.909-7.92-14.32-10.154-5.808-2.493-12.752-3.754-20.832-3.754-2.752 0-5.744 0.134-8.96 0.426-2.861 0.211-5.699 0.698-8.48 1.45l15.872 70.317c2.752 0.717 5.68 1.158 8.752 1.363 3.088 0.224 6.016 0.326 8.768 0.326zM1107.088 314.282c-4.912 0-7.856-0.154-8.848-0.426l-12.608-55.808c0.528-0.118 1.424-0.256 2.656-0.342 1.248-0.118 3.296-0.17 6.112-0.17 5.184 0 9.856 0.922 14.032 2.765 4.16 1.843 7.68 4.419 10.576 7.731 2.957 3.418 5.235 7.434 6.704 11.811 1.568 4.557 2.368 9.555 2.368 14.982 0 6.144-1.68 10.925-5.024 14.336-3.36 3.414-8.672 5.12-15.952 5.12h-0.016zM1211.568 249.702h-9.552l7.584 33.638h-31.6l-7.584-33.638h-9.552l16.336 72.413h9.552l-6.88-30.31h31.6l6.896 30.31h9.552l-16.352-72.413zM1226.64 249.702l16.336 72.413h40.272l-1.872-8.464h-30.832l-4.912-21.846h27.376l-1.888-8.243h-27.264l-5.808-25.395h33.072l-1.872-8.464h-42.608zM1311.76 322.851c7.28 0 13.056-1.571 17.328-4.71 4.256-3.142 6.4-7.731 6.4-13.792 0-6.125-1.696-11.264-5.072-15.411-3.392-4.147-8.128-7.117-14.24-8.925 0.8-1.469 1.712-3.328 2.768-5.597 2.387-5.254 4.557-10.618 6.496-16.077 1.056-2.97 1.968-5.837 2.752-8.637h-9.744c-0.928 2.694-1.875 5.379-2.848 8.054-0.976 2.733-1.984 5.325-3.008 7.853-1.763 4.371-3.715 8.656-5.856 12.832-1.702-0.138-3.411-0.205-5.12-0.205h-7.584l-6.4-28.534h-9.552l16.16 71.475c2.752 0.701 5.664 1.162 8.752 1.366s6 0.307 8.768 0.307zM1310.576 314.282c-4.672 0-7.488-0.154-8.48-0.426l-6.208-27.376h5.824c2.688 0 5.44 0.205 8.272 0.614 2.816 0.429 5.392 1.248 7.712 2.458 2.278 1.171 4.24 2.931 5.712 5.12 1.488 2.202 2.24 5.12 2.24 8.723 0 3.907-1.408 6.688-4.192 8.362-2.8 1.69-6.432 2.525-10.88 2.525zM1336.208 249.702l16.336 72.413h40.272l-1.872-8.464h-30.816l-4.928-21.846h27.376l-1.888-8.243h-27.264l-5.808-25.395h33.072l-1.872-8.464h-42.608z" />
<glyph unicode="&#xe91e;" horiz-adv-x="1600" d="M307.648 373.898c-72.48 0-131.232 62.362-131.232 139.264 0 76.918 58.752 139.263 131.232 139.263s131.232-62.345 131.232-139.263c0-76.902-58.752-139.264-131.232-139.264zM365.504 533.027c2.608 18.534-10.688 28.499-28.88 35.155l5.92 25.107-14.4 3.821-5.76-24.454c-3.776 0.989-7.68 1.946-11.536 2.867l5.776 24.627-14.4 3.805-5.888-25.104c-3.074 0.733-6.141 1.501-9.2 2.304v0.067l-19.84 5.258-3.84-16.317c0 0 10.672-2.595 10.448-2.765 5.84-1.536 6.896-5.632 6.72-8.893l-6.72-28.602c0.514-0.128 1.017-0.298 1.504-0.512l-1.536 0.41-9.408-40.109c-0.72-1.859-2.528-4.675-6.608-3.6 0.16-0.221-10.464 2.765-10.464 2.765l-7.168-17.51 18.752-4.95c3.488-0.922 6.896-1.894 10.256-2.816l-5.952-25.395 14.384-3.805 5.92 25.123c3.92-1.126 7.728-2.186 11.472-3.158l-5.888-25.021 14.4-3.805 5.968 25.344c24.56-4.931 43.040-2.934 50.8 20.65 6.272 18.979-0.32 29.92-13.232 37.069 9.424 2.304 16.512 8.877 18.4 22.445zM332.592 484.045c-4.448-18.995-34.56-8.72-44.32-6.144l7.904 33.638c9.76-2.576 41.072-7.696 36.416-27.494zM337.056 533.283c-4.064-17.238-29.12-8.483-37.28-6.333l7.2 30.515c8.112-2.15 34.304-6.16 30.080-24.182z" />
<glyph unicode="&#xe91f;" horiz-adv-x="1600" d="M0 864c0 53.019 42.981 96 96 96h1408c53.021 0 96-42.981 96-96v-832c0-53.021-42.979-96-96-96h-1408c-53.019 0-96 42.979-96 96v832z" />
<glyph unicode="&#xe920;" horiz-adv-x="1600" d="M862.282 736h-135.213c-158.998 0.057-289.866-118.733-289.866-290.506 0-157.142 130.87-286.253 289.866-285.491h135.213c157.11-0.755 300.528 128.39 300.528 285.491 0 171.808-143.402 290.557-300.528 290.506zM464.861 447.981c0.051 145.635 117.776 263.638 263.059 263.683 145.322-0.052 263.075-118.045 263.094-263.683-0.016-145.613-117.776-263.606-263.094-263.648-145.296 0.051-263.024 118.035-263.059 263.648z" />
<glyph unicode="&#xe921;" horiz-adv-x="1600" d="M561.658 448.694c0.138 71.168 44.493 131.853 107.040 155.968v-311.898c-62.547 24.099-106.906 84.755-107.040 155.93v0zM788.045 292.685v311.968c62.573-24.058 106.998-84.778 107.114-155.978-0.115-71.219-44.541-131.894-107.114-155.997v0.006z" />
<glyph unicode="&#xe922;" horiz-adv-x="1600" d="M0 864c0 53.019 42.981 96 96 96h1408c53.021 0 96-42.981 96-96v-832c0-53.021-42.979-96-96-96h-1408c-53.019 0-96 42.979-96 96v832z" />
<glyph unicode="&#xe923;" horiz-adv-x="1600" d="M150.316 654.507h-66.105v-234.667h66.105c34.948 0 60.211 8.534 82.526 26.88 26.526 22.186 42.105 55.466 42.105 90.026-0.421 69.549-51.368 117.761-124.632 117.761zM203.369 477.866c-14.316-12.8-32.421-18.771-61.895-18.771h-12.211v155.306h12.211c29.052 0 46.737-5.12 61.895-18.774 15.579-14.080 24.842-35.84 24.842-58.451 0-22.614-9.263-45.229-24.842-59.309zM295.58 654.507h45.051v-234.667h-45.051v234.667zM450.947 564.48c-26.947 10.24-34.947 17.066-34.947 29.44 0 14.934 14.317 26.026 33.683 26.026 13.475 0 24.845-5.546 36.211-19.2l23.581 31.149c-19.37 17.066-42.528 26.026-68.211 26.026-40.842 0-72.422-29.015-72.422-67.415 0-32.426 14.739-49.066 56.842-64.426 17.686-6.4 26.528-10.666 31.158-13.226 8.842-5.974 13.475-14.509 13.475-24.32 0-19.2-14.736-33.28-34.947-33.28-21.475 0-38.739 11.091-49.264 31.146l-29.053-28.586c20.63-31.149 45.894-44.8 80-44.8 46.736 0 80 31.571 80 77.226 0.842 37.974-14.736 55.040-66.106 74.24zM531.789 536.746c0-69.12 53.475-122.451 122.106-122.451 19.37 0 36.211 3.84 56.422 13.651v53.76c-18.106-18.346-34.106-25.6-54.317-25.6-45.472 0-77.894 33.28-77.894 81.069 0 45.226 33.264 80.64 75.789 80.64 21.475 0 37.894-7.68 56.422-26.454v53.76c-19.789 10.24-36.211 14.507-55.581 14.507-67.789 0-122.947-54.612-122.947-122.881zM1069.053 496.64l-61.894 157.867h-49.264l98.106-240.641h24.422l99.789 240.641h-48.842l-62.317-157.867zM1200.842 419.84h128v39.68h-82.947v63.146h80v39.68h-80v52.054h82.947v40.107h-128v-234.667zM1507.789 584.96c0 43.946-29.894 69.12-82.106 69.12h-66.947v-234.666h45.053v94.291h5.894l62.317-94.291h55.581l-72.845 98.986c34.106 7.254 53.053 30.72 53.053 66.56zM1416.842 546.134h-13.053v71.251h13.894c28.211 0 43.37-11.946 43.37-34.986 0-23.466-15.158-36.266-44.211-36.266z" />
<glyph unicode="&#xe924;" horiz-adv-x="1600" d="M848.842 411.306c32.73 0 64.118 13.178 87.264 36.63 23.142 23.453 36.144 55.261 36.144 88.426 0 33.168-13.002 64.976-36.144 88.429-23.146 23.453-54.534 36.628-87.264 36.628-32.733 0-64.122-13.175-87.267-36.628-23.142-23.453-36.144-55.261-36.144-88.429 0-33.165 13.002-64.973 36.144-88.426 23.146-23.453 54.534-36.63 87.267-36.63z" />
<glyph unicode="&#xe925;" horiz-adv-x="1600" d="M848.842 411.306c32.73 0 64.118 13.178 87.264 36.63 23.142 23.453 36.144 55.261 36.144 88.426 0 33.168-13.002 64.976-36.144 88.429-23.146 23.453-54.534 36.628-87.264 36.628-32.733 0-64.122-13.175-87.267-36.628-23.142-23.453-36.144-55.261-36.144-88.429 0-33.165 13.002-64.973 36.144-88.426 23.146-23.453 54.534-36.63 87.267-36.63z" />
<glyph unicode="&#xe926;" horiz-adv-x="1600" d="M1539.792 639.744c0 4.267-2.947 6.401-7.578 6.401h-6.739v-20.481h5.053v8.109l5.898-8.109h5.894l-6.739 8.534c2.528 0.426 4.211 2.56 4.211 5.546zM1531.373 636.758h-0.845v5.546h0.845c2.525 0 3.789-0.853 3.789-2.561 0-2.131-1.264-2.986-3.789-2.986z" />
<glyph unicode="&#xe927;" horiz-adv-x="1600" d="M1533.053 653.824c-9.686 0-17.686-8.107-17.686-17.92s8-17.92 17.686-17.92c9.683 0 17.683 8.106 17.683 17.92s-8 17.92-17.683 17.92zM1533.053 620.97c-7.581 0-14.317 6.4-14.317 14.934 0 8.107 6.317 14.933 14.317 14.933 7.578 0 13.894-6.827 13.894-14.933s-6.317-14.934-13.894-14.934z" />
<glyph unicode="&#xe928;" horiz-adv-x="1600" d="M1599.002 416c0 0-429.654-330.144-1215.002-480h1128.246c22.88 0 44.829 9.99 61.072 27.802 16.243 17.808 25.459 41.99 25.642 67.277l1.040 144.73-0.998 240.144v0.048z" />
<glyph unicode="&#xe929;" horiz-adv-x="1600" d="M0 864c0 53.019 42.981 96 96 96h1408c53.021 0 96-42.981 96-96v-832c0-53.021-42.979-96-96-96h-1408c-53.019 0-96 42.979-96 96v832z" />
<glyph unicode="&#xe92a;" horiz-adv-x="1600" d="M807.635 794.88l-4.368-15.94v-462.37l4.368-4.659 199.584 126.858-199.584 356.112z" />
<glyph unicode="&#xe92b;" horiz-adv-x="1600" d="M807.632 794.88l-199.632-356.112 199.632-126.893v483.005z" />
<glyph unicode="&#xe92c;" horiz-adv-x="1600" d="M807.632 271.274l-2.496-3.226v-164.742l2.496-7.699 199.712 302.438-199.712-126.771z" />
<glyph unicode="&#xe92d;" horiz-adv-x="1600" d="M807.632 95.606v175.667l-199.632 126.771 199.632-302.438z" />
<glyph unicode="&#xe92e;" horiz-adv-x="1600" d="M807.632 311.91l199.584 126.858-199.584 97.552v-224.41z" />
<glyph unicode="&#xe92f;" horiz-adv-x="1600" d="M608 438.768l199.632-126.858v224.41l-199.632-97.552z" />
<glyph unicode="&#xe930;" horiz-adv-x="1600" d="M0 864c0 53.019 42.981 96 96 96h1408c53.021 0 96-42.981 96-96v-832c0-53.021-42.979-96-96-96h-1408c-53.019 0-96 42.979-96 96v832z" />
<glyph unicode="&#xe931;" horiz-adv-x="1600" d="M761.802 449.021v-136.531h-42.864v337.066h113.306c13.574 0.233 27.062-2.256 39.686-7.323s24.134-12.613 33.872-22.204c9.222-8.72 16.656-19.197 21.882-30.832s8.134-24.198 8.566-36.973c0.429-12.774-1.629-25.51-6.058-37.478-4.432-11.968-11.146-22.934-19.76-32.272l-4.63-4.95c-19.792-19.072-46.234-29.44-73.558-28.758l-70.442 0.256zM761.802 608.253v-118.954h71.494c15.872-0.512 31.2 5.76 42.314 17.238 7.952 8.397 13.293 18.979 15.354 30.429 2.064 11.446 0.758 23.258-3.75 33.962s-12.026 19.827-21.613 26.237c-9.584 6.41-20.819 9.821-32.304 9.808l-71.494 1.28zM1034.81 550.739c27.37 1.28 54.15-8.022 74.864-26.154 18.736-18.349 28.717-43.949 27.37-70.358v-142.25h-40.8v32.682h-2.064c-7.318-12.259-17.664-22.371-30.016-29.338-12.355-6.966-26.288-10.544-40.426-10.384-23.078-0.758-45.584 7.366-62.989 22.739-8.246 6.819-14.858 15.446-19.328 25.232-4.474 9.789-6.688 20.477-6.483 31.261-0.486 10.896 1.603 21.754 6.093 31.667 4.49 9.917 11.248 18.602 19.718 25.334 20.774 15.139 45.92 22.867 71.494 21.974 21.766 0.851 43.366-3.968 62.736-14.125v8.877c0.144 7.338-1.363 14.611-4.406 21.27-3.043 6.662-7.539 12.531-13.152 17.171-11.27 10.384-26.035 16-41.261 15.702-11.062 0.106-21.965-2.65-31.683-8.003-9.718-5.35-17.926-13.126-23.856-22.589l-37.683 24.064c10.234 14.854 24.048 26.81 40.128 34.726 16.083 7.917 33.894 11.533 51.744 10.499zM980.621 383.146c-0.099-5.526 1.139-10.992 3.616-15.92 2.474-4.925 6.106-9.158 10.573-12.326 9.392-7.51 21.053-11.478 33.053-11.222 18.064 0.045 35.37 7.254 48.253 20.141 12.845 12.202 20.128 29.226 20.128 47.059-16.211 11.68-35.904 17.315-55.747 15.958-15.408 0.614-30.605-3.779-43.37-12.544-5.056-3.427-9.203-8.058-12.080-13.488-2.88-5.43-4.397-11.494-4.426-17.658zM1371.61 543.146l-142.736-332.374h-44.125l53.936 116.394-93.642 215.981h46.442l67.875-165.76 66.061 165.76h46.189z" />
<glyph unicode="&#xe932;" horiz-adv-x="1600" d="M588.893 478.55c0 13.142-1.011 26.285-3.075 39.254h-180.63v-74.538h103.2c-2.102-11.846-6.541-23.142-13.053-33.206-6.509-10.067-14.96-18.698-24.842-25.376v-48.384h61.642c18.742 18.378 33.478 40.531 43.254 65.030 9.776 24.502 14.374 50.806 13.504 77.219z" />
<glyph unicode="&#xe933;" horiz-adv-x="1600" d="M405.424 289.238c46.582-1.293 91.901 15.443 126.736 46.806l-61.728 48.64c-14.829-9.635-31.635-15.718-49.136-17.782-17.498-2.067-35.232-0.061-51.853 5.862s-31.69 15.61-44.058 28.323c-12.372 12.71-21.718 28.115-27.331 45.037h-63.242v-49.92c15.825-32.128 40.171-59.155 70.306-78.048 30.136-18.896 64.869-28.909 100.306-28.918z" />
<glyph unicode="&#xe934;" horiz-adv-x="1600" d="M298.064 445.866c-8.009 24.010-8.009 50.019 0 74.026v49.92h-63.242c-13.483-26.941-20.509-56.723-20.509-86.931s7.026-59.994 20.509-86.934l63.242 49.92z" />
<glyph unicode="&#xe935;" horiz-adv-x="1600" d="M405.424 599.891c27.242 0.502 53.578-9.926 73.261-29.014l54.739 55.168c-34.902 33.195-81.194 51.3-129.053 50.475-35.229-0.179-69.718-10.24-99.646-29.068s-54.127-45.685-69.913-77.599l63.242-49.962c7.395 23.037 21.73 43.142 40.988 57.494 19.261 14.349 42.477 22.221 66.381 22.506z" />
<glyph unicode="&#xe936;" horiz-adv-x="1600" d="M0 864c0 53.019 42.981 96 96 96h1408c53.021 0 96-42.981 96-96v-832c0-53.021-42.979-96-96-96h-1408c-53.019 0-96 42.979-96 96v832z" />
<glyph unicode="&#xe937;" horiz-adv-x="1600" d="M1003.808 418.406h56.56c0.938-0.013 1.869-0.070 2.8-0.17 1.126-0.128 2.246-0.301 3.36-0.512l0.368-0.070c1.616-0.387 3.187-0.957 4.688-1.706 3.67-1.766 6.877-4.461 9.344-7.85 2.272-3.091 3.869-6.682 4.672-10.515 1.453-6.896 0.451-14.122-2.816-20.275-2.038-3.757-4.928-6.912-8.4-9.181-2.31-1.526-4.838-2.634-7.488-3.277l-0.368-0.086c-0.49-0.125-0.986-0.214-1.488-0.272-1.549-0.234-3.107-0.371-4.672-0.41h-56.56v54.323zM1079.056 479.914c1.178-5.808 0.518-11.869-1.872-17.235-2.035-4.387-5.302-7.99-9.344-10.31-2.32-1.386-4.848-2.339-7.472-2.816l-0.224-0.032c-0.544-0.106-1.094-0.179-1.648-0.224-1.245-0.128-2.493-0.208-3.744-0.237h-50.944v50.125h51.888c1.248-0.054 2.493-0.166 3.728-0.342l0.72-0.086 0.224-0.051c1.933-0.355 3.814-0.97 5.6-1.824 1.651-0.8 3.216-1.786 4.672-2.938 1.779-1.446 3.354-3.158 4.672-5.085 1.818-2.672 3.091-5.718 3.744-8.944zM1194.944 739.908h0.384v-514.971c-0.019-13.123-2.368-26.125-6.928-38.314-2.685-7.165-6.131-13.981-10.272-20.31-0.608-0.931-1.232-1.853-1.872-2.765l-0.944-1.296c-0.906-1.258-1.84-2.493-2.8-3.702l-0.928-1.178-0.944-1.11c-0.608-0.733-1.226-1.456-1.856-2.166l-0.944-1.024-0.928-1.024-1.872-1.93c-1.514-1.52-3.072-2.989-4.672-4.403l-0.944-0.819-0.928-0.803-0.928-0.768-1.872-1.485-0.944-0.733-0.928-0.682-0.944-0.701-0.928-0.666-0.928-0.65-0.944-0.63c-0.618-0.419-1.242-0.829-1.872-1.229l-0.928-0.598c-0.307-0.189-0.618-0.378-0.928-0.563l-0.944-0.563-0.928-0.544-0.944-0.512-0.928-0.531-0.944-0.512-1.856-0.954-0.944-0.461-0.928-0.461-0.944-0.429-0.928-0.426-0.928-0.41-0.944-0.41-0.928-0.394-0.944-0.374-0.928-0.358-0.944-0.342c-0.304-0.118-0.608-0.256-0.928-0.358l-0.928-0.323-0.944-0.323-0.928-0.307-0.944-0.291-0.928-0.291-0.928-0.272-0.944-0.272-0.928-0.24-0.944-0.256-0.928-0.24-0.944-0.205-0.928-0.221-0.928-0.205-0.944-0.17-0.928-0.205-0.944-0.173-1.856-0.307-0.944-0.134-0.928-0.138-0.944-0.118-2.8-0.307-0.928-0.086-0.944-0.067-0.928-0.070c-0.32 0-0.64-0.032-0.944-0.051l-0.928-0.032-1.872-0.070h-0.928l-0.944-0.016h-142.192v209.955l153.408 0.051c0.32 0 0.64 0.032 0.944 0.051l0.928 0.032 0.944 0.070 1.856 0.134 0.944 0.102 0.928 0.086 0.944 0.118 0.928 0.122 1.872 0.272 3.744 0.682 0.928 0.224 0.928 0.205c0.317 0.077 0.63 0.157 0.944 0.237l0.928 0.24c1.258 0.326 2.506 0.691 3.744 1.091l0.928 0.307c0.947 0.317 1.885 0.659 2.816 1.024l0.928 0.394 0.928 0.374 0.944 0.41c5.786 2.611 11.149 6.182 15.888 10.582 2.429 2.346 4.621 4.954 6.544 7.782 3.018 4.554 5.235 9.654 6.544 15.053 0.922 3.859 1.373 7.827 1.344 11.811 0 3.859-0.451 7.709-1.344 11.45-1.533 6.294-4.413 12.125-8.416 17.034-2.467 3.091-5.296 5.834-8.416 8.157-2.925 2.256-6.058 4.192-9.344 5.786-0.922 0.458-1.856 0.89-2.8 1.299l-0.944 0.41c-0.307 0.125-0.618 0.253-0.928 0.374l-0.928 0.358c-1.238 0.47-2.486 0.909-3.744 1.315l-0.944 0.288c-1.846 0.57-3.715 1.059-5.6 1.469l-0.928 0.205-0.944 0.189-0.928 0.17c-0.314 0.058-0.627 0.115-0.944 0.17l-0.928 0.173c-0.314 0.048-0.627 0.093-0.944 0.134l-1.856 0.275-2.816 0.307-0.928 0.083-0.864 0.070v1.194l0.864 0.138 0.928 0.17 0.944 0.17 0.928 0.173 0.944 0.221 0.928 0.221c3.51 0.845 6.954 1.99 10.288 3.43 3.974 1.763 7.734 4.026 11.2 6.742 5.552 4.422 10.038 10.192 13.088 16.829 2.019 4.528 3.286 9.395 3.744 14.387 0.32 3.251 0.32 6.528 0 9.779-0.397 4.195-1.341 8.314-2.8 12.237-2.086 5.491-5.277 10.432-9.344 14.47-1.731 1.776-3.603 3.386-5.6 4.813-2.653 1.946-5.478 3.616-8.432 4.986-2.429 1.149-4.925 2.134-7.472 2.95l-0.928 0.291c-0.621 0.192-1.245 0.374-1.872 0.547l-0.944 0.237c-0.614 0.17-1.235 0.33-1.856 0.48l-0.944 0.205-0.928 0.205-0.944 0.17-0.928 0.17-0.928 0.173-0.944 0.17-0.928 0.138-0.944 0.118-0.928 0.118-1.872 0.205-1.872 0.173-0.928 0.067-0.944 0.051-0.368 0.035-0.56 0.032-0.928 0.051-0.944 0.070-0.928 0.051-0.944 0.032-0.928 0.051-1.872 0.070-0.928 0.016h-0.944l-0.512 0.016h-137.024v106.957c0.006 15.407 3.251 30.616 9.488 44.511 1.658 3.699 3.526 7.284 5.6 10.735 0.614 1.013 1.242 2.015 1.888 3.004l0.928 1.416c0.611 0.909 1.235 1.808 1.872 2.697l0.928 1.297 0.944 1.229c0.608 0.808 1.226 1.604 1.856 2.389l0.944 1.109 0.928 1.109c0.922 1.067 1.859 2.114 2.816 3.14l1.856 1.946 0.944 0.922 0.928 0.922 0.944 0.87c1.219 1.146 2.461 2.261 3.728 3.345l0.944 0.768 0.928 0.768c0.621 0.497 1.245 0.986 1.872 1.468l0.928 0.7c0.314 0.23 0.627 0.458 0.944 0.683l0.928 0.683 0.944 0.666 0.928 0.631 0.928 0.614 0.944 0.614 0.928 0.597 0.944 0.58 0.928 0.563 0.944 0.546 0.928 0.529 0.928 0.512 0.944 0.512 0.928 0.512 0.944 0.461c0.304 0.171 0.624 0.307 0.928 0.461l0.928 0.461 0.944 0.444 0.928 0.427 0.944 0.41 0.928 0.41 0.944 0.393 1.856 0.751 0.944 0.341 0.928 0.358 0.944 0.341 0.928 0.307 0.928 0.324 0.944 0.29 0.928 0.29 0.944 0.273 0.928 0.273 0.944 0.256 1.856 0.478 0.944 0.222 0.928 0.222 0.944 0.205 1.856 0.376 0.944 0.171 0.928 0.171 0.944 0.154 0.928 0.137 0.944 0.137 1.856 0.239 1.872 0.205 0.944 0.085 1.856 0.137c0.32 0 0.64 0.034 0.944 0.051l0.928 0.051 1.872 0.068h0.944l0.928 0.017 142.064 0.034z" />
<glyph unicode="&#xe938;" horiz-adv-x="1600" d="M420.672 382.55v254.378c0.010 15.388 3.245 30.578 9.472 44.459 2.15 4.771 4.643 9.359 7.456 13.722l0.928 1.434 0.944 1.365 0.928 1.331 0.928 1.28 0.944 1.246c0.608 0.807 1.226 1.603 1.856 2.389l0.944 1.109c0.307 0.372 0.614 0.742 0.928 1.109l0.928 1.075c0.614 0.692 1.238 1.375 1.872 2.048l0.928 0.99 0.928 0.956 0.944 0.939 0.928 0.905 0.928 0.887 0.944 0.853 0.928 0.853c1.517 1.363 3.075 2.672 4.672 3.925l0.928 0.717c1.219 0.944 2.464 1.855 3.728 2.731l0.928 0.631 0.944 0.614 0.928 0.614 0.928 0.597 0.944 0.58 0.928 0.546 0.928 0.563 0.944 0.512 0.928 0.546 0.928 0.512 0.944 0.478c0.304 0.171 0.608 0.341 0.928 0.478l0.928 0.478 0.928 0.461 0.944 0.427 1.856 0.853 0.944 0.393 0.928 0.393 0.928 0.375 0.944 0.393 1.856 0.683 0.944 0.341 0.928 0.324 0.928 0.307 0.944 0.307 0.928 0.29 0.928 0.273 0.944 0.273 0.928 0.256 1.856 0.478c0.31 0.088 0.627 0.162 0.944 0.222l0.928 0.222 0.928 0.205 0.944 0.188 0.928 0.205 0.928 0.171 0.944 0.171c0.32 0.034 0.608 0.102 0.928 0.154l1.872 0.273 1.856 0.239 1.872 0.205 0.928 0.085 2.8 0.205 0.928 0.034 0.944 0.051 0.928 0.034h0.928l0.944 0.017h142.608v-514.935c-0.013-11.622-1.856-23.162-5.456-34.134-3.619-11.005-8.989-21.264-15.872-30.326l-0.928-1.229c-0.614-0.784-1.238-1.558-1.872-2.32l-0.928-1.11-0.928-1.075-0.944-1.059c-1.21-1.344-2.454-2.653-3.728-3.923l-0.928-0.922-0.944-0.89-0.928-0.87-0.928-0.851-0.928-0.838-0.944-0.784-0.928-0.803-0.928-0.749-0.944-0.768-1.856-1.434-0.944-0.685-0.928-0.682-0.928-0.666-0.944-0.65c-0.304-0.221-0.608-0.41-0.928-0.614l-0.928-0.63-0.944-0.579-0.928-0.598c-0.32-0.17-0.624-0.374-0.928-0.563-0.621-0.371-1.245-0.736-1.872-1.091l-1.856-1.024-0.944-0.512-0.928-0.48-0.928-0.461-0.944-0.477-0.928-0.426-0.928-0.445-0.944-0.426-0.928-0.394-0.928-0.41-0.944-0.374-0.928-0.378-0.928-0.339-0.928-0.358-0.944-0.342-0.928-0.342c-0.32-0.083-0.624-0.205-0.928-0.307l-0.944-0.288-0.928-0.307-0.928-0.275-0.944-0.272-0.928-0.272-0.928-0.24-1.872-0.477-0.928-0.205-0.944-0.224-0.928-0.186-0.928-0.189-2.8-0.512-0.928-0.138-0.944-0.134-0.928-0.138-0.928-0.118-1.872-0.205-1.872-0.173-1.856-0.134-0.944-0.051-1.856-0.070-0.928-0.016h-0.944l-0.864-0.035h-142.016v217.037l2-0.563 4.672-1.194 0.928-0.221 0.928-0.224 0.944-0.221 0.928-0.221 0.928-0.205 0.944-0.224 3.728-0.819 0.928-0.186 0.928-0.205 0.944-0.189 0.928-0.189 1.872-0.374 0.928-0.189 0.928-0.17 0.944-0.189 7.456-1.363 0.928-0.138 0.944-0.17 1.856-0.307 0.944-0.138 0.928-0.154 0.928-0.138 0.944-0.154 0.928-0.134 0.928-0.138 2.8-0.41 0.928-0.118 0.944-0.138 0.928-0.118 0.928-0.138 0.944-0.118 0.928-0.122 0.928-0.118 0.944-0.102 0.928-0.118 0.928-0.122 6.528-0.717 0.944-0.083 0.928-0.086 0.928-0.102 2.8-0.256 0.944-0.067 0.928-0.086 0.928-0.067 0.944-0.086 0.928-0.067 0.928-0.070 1.872-0.134 0.928-0.070 0.928-0.051 0.944-0.067 6.528-0.358 0.928-0.035 0.944-0.032 1.856-0.070 0.944-0.032 1.856-0.070 0.928-0.016 0.944-0.035h0.928l0.928-0.032h0.944l0.928-0.035h1.872l0.928-0.016h6.528l0.928 0.032h0.944l0.928 0.035 0.928 0.016 0.944 0.035 0.928 0.016 3.728 0.137 1.872 0.102 0.928 0.035 0.944 0.051 0.928 0.067 1.856 0.102 0.944 0.067 0.928 0.086 1.872 0.137 0.928 0.083 3.728 0.342 3.728 0.41 0.944 0.118 0.928 0.122 0.928 0.118 0.944 0.118 1.856 0.275 0.944 0.134 0.928 0.154 0.928 0.138 0.944 0.17 0.928 0.138 3.728 0.682 0.928 0.189 0.944 0.189 0.928 0.205c0.32 0.051 0.624 0.134 0.928 0.205l0.944 0.186 0.928 0.224 0.928 0.221 0.944 0.221 0.928 0.224 1.872 0.477 1.856 0.512 0.944 0.272 0.928 0.256 0.928 0.291 0.928 0.272 0.944 0.291 1.856 0.614 0.944 0.323 0.928 0.326 0.928 0.339 0.944 0.342 0.928 0.342 0.928 0.374 0.944 0.358 0.928 0.394 0.928 0.39 0.944 0.394 0.928 0.426 0.928 0.41 0.928 0.445 0.944 0.461 0.928 0.461c0.32 0.154 0.64 0.307 0.928 0.477l0.944 0.48 1.856 1.024 0.944 0.512c0.944 0.55 1.875 1.12 2.8 1.706l0.928 0.598 0.928 0.614 0.944 0.63 1.856 1.331c0.32 0.24 0.64 0.461 0.928 0.701l0.944 0.717 0.928 0.749c0.954 0.771 1.885 1.568 2.8 2.39l0.928 0.854 0.944 0.902 0.928 0.922c0.637 0.646 1.261 1.306 1.872 1.981l0.928 1.024 0.928 1.11c3.75 4.486 6.89 9.514 9.328 14.931 1.514 3.318 2.768 6.768 3.744 10.31 0.765 2.742 1.386 5.526 1.856 8.346 0.96 5.728 1.43 11.536 1.408 17.357v119.501h-82.576l-0.704-119.501c-0.013-4.112-0.403-8.211-1.168-12.237-0.65-3.261-1.587-6.451-2.8-9.523-1.462-3.622-3.344-7.034-5.6-10.157-2.397-3.29-5.222-6.205-8.384-8.653-3.43-2.682-7.203-4.832-11.2-6.381-1.533-0.608-3.094-1.146-4.672-1.606l-0.928-0.272c-1.846-0.509-3.715-0.918-5.6-1.229l-0.928-0.17c-0.624-0.096-1.248-0.182-1.872-0.256l-1.856-0.205-0.944-0.086c-0.618-0.048-1.238-0.090-1.856-0.118l-0.928-0.051-0.944-0.035h-0.928l-0.928-0.035h-1.872l-0.928 0.035h-0.944l-0.928 0.035-0.928 0.032-0.944 0.051-0.928 0.035-0.928 0.051-0.944 0.067-0.928 0.070-1.856 0.134-1.872 0.173-2.8 0.307-0.928 0.118-0.944 0.118-0.928 0.122-1.872 0.272-0.928 0.138-0.928 0.154-0.944 0.17-0.928 0.154-3.728 0.682-0.928 0.205-0.944 0.189-1.856 0.41-0.944 0.221-0.928 0.205-0.928 0.224-0.944 0.237-1.856 0.48-0.944 0.237-2.784 0.768-2.8 0.819-0.944 0.291-0.928 0.291-1.872 0.579-1.856 0.614-0.944 0.323-0.928 0.307-0.928 0.342-0.944 0.323-1.856 0.685-0.928 0.339-0.944 0.342-0.928 0.342-0.928 0.374-0.944 0.358-0.928 0.374-0.928 0.378-0.944 0.374-0.928 0.374-0.928 0.394-0.944 0.394-0.928 0.39-0.928 0.41-0.944 0.41-1.856 0.819-0.928 0.429-0.944 0.426-0.928 0.426-0.928 0.445-0.944 0.426-1.856 0.89-0.944 0.461-1.856 0.922-0.944 0.461-0.928 0.461-2 1.024z" />
<glyph unicode="&#xe939;" horiz-adv-x="1600" d="M690.563 503.84c-0.672-0.579-1.331-1.171-1.984-1.773v134.826c0 15.393 3.232 30.589 9.456 44.476 2.154 4.772 4.653 9.36 7.472 13.722l0.928 1.434 0.944 1.365c0.304 0.441 0.614 0.879 0.928 1.314l0.928 1.297 0.944 1.229c0.605 0.807 1.226 1.603 1.856 2.389l0.928 1.126 0.944 1.109c1.206 1.403 2.448 2.768 3.728 4.096l0.928 0.973 0.944 0.922 0.928 0.922 0.928 0.888 0.944 0.853 0.928 0.853c1.821 1.604 3.686 3.147 5.6 4.625 0.922 0.709 1.856 1.403 2.8 2.082l1.856 1.297 0.944 0.614 0.928 0.614 0.928 0.58 0.944 0.597 0.928 0.546 0.928 0.563 0.944 0.512 0.928 0.529 0.928 0.512 0.944 0.495 0.928 0.478 1.856 0.922 0.944 0.444 0.928 0.427 0.928 0.41 0.944 0.41 0.928 0.393 0.928 0.375 0.944 0.376 0.928 0.341 0.928 0.358 0.944 0.341 0.928 0.324 0.928 0.307 0.944 0.29 0.928 0.307 0.928 0.273 0.944 0.273 0.928 0.256 1.856 0.478 0.944 0.222 0.928 0.222 0.928 0.205 0.944 0.188 0.928 0.188 0.928 0.171 0.944 0.171 0.928 0.171 0.928 0.137 0.944 0.136 1.856 0.239 1.872 0.205 0.928 0.085 2.8 0.205 0.928 0.034 0.944 0.051 0.928 0.034h0.928l0.944 0.017h142.624v-514.934c-0.016-11.626-1.866-23.165-5.472-34.134-2.198-6.611-5.011-12.97-8.4-18.979-0.602-1.059-1.219-2.106-1.856-3.139-0.32-0.512-0.624-1.024-0.944-1.501-1.472-2.301-3.024-4.538-4.656-6.707l-0.944-1.229-0.928-1.178-0.928-1.126-0.944-1.126-0.928-1.075-0.928-1.059-0.928-1.024c-0.915-0.989-1.85-1.955-2.8-2.902l-0.944-0.922-0.928-0.886-0.928-0.87-0.944-0.854-0.928-0.819-0.928-0.8-0.944-0.803-0.928-0.752-0.928-0.749-0.944-0.736-0.928-0.717-0.928-0.682-1.872-1.35-0.928-0.646-0.928-0.614-0.944-0.63-0.928-0.582-0.928-0.595c-0.314-0.192-0.63-0.378-0.944-0.563l-1.856-1.094-0.944-0.512-1.856-1.024-0.944-0.477c-0.304-0.17-0.624-0.307-0.928-0.461l-0.928-0.461c-0.32-0.17-0.64-0.307-0.944-0.445l-0.928-0.442-0.928-0.41-0.944-0.41-0.928-0.41-0.928-0.378-0.928-0.374-0.944-0.342-0.928-0.358-0.928-0.339-0.944-0.342c-0.32-0.086-0.624-0.205-0.928-0.307l-0.928-0.291-0.944-0.307-2.8-0.819-0.928-0.237-0.928-0.24-0.944-0.24-0.928-0.205-0.928-0.221-1.872-0.374-0.928-0.173-0.928-0.17-0.944-0.17-1.856-0.275-0.944-0.134-0.928-0.122-1.872-0.205-0.928-0.083-0.928-0.086-0.944-0.067-0.928-0.070-0.928-0.051-0.944-0.032-0.928-0.035-0.928-0.016-0.944-0.019h-142.88v237.757c1.261-1.149 2.55-2.256 3.872-3.328l0.928-0.752 0.928-0.733c0.618-0.48 1.242-0.954 1.872-1.418l0.928-0.682 0.928-0.65 1.872-1.28 0.928-0.614 0.944-0.614 0.928-0.579 0.928-0.582 0.944-0.56 1.856-1.094 0.944-0.512 1.856-1.024 0.944-0.496 1.856-0.954 0.928-0.461 0.944-0.445 0.928-0.442 0.928-0.429 0.944-0.426 1.856-0.819 0.944-0.394 0.928-0.394 0.928-0.39 0.944-0.374 0.928-0.342 0.928-0.374 0.944-0.342 0.928-0.342 0.928-0.339 0.928-0.342 0.944-0.307 0.928-0.323 0.928-0.307 0.944-0.291 0.928-0.291 1.872-0.579 0.928-0.272 0.928-0.275 0.944-0.272 1.856-0.512 1.872-0.477 0.928-0.24 0.944-0.24 1.856-0.442 0.928-0.224 0.944-0.205 1.856-0.41 0.944-0.205 0.928-0.186 0.928-0.189 0.944-0.17 0.928-0.189 3.728-0.682 0.944-0.157 0.928-0.15 0.928-0.154 0.944-0.138 0.928-0.138 0.928-0.154 0.928-0.118 0.944-0.138 0.928-0.118 0.928-0.138 0.944-0.118 0.928-0.102 0.928-0.118 1.872-0.205 0.928-0.106 0.944-0.099 0.928-0.102 4.672-0.429 1.856-0.134 0.928-0.070 1.872-0.134 0.928-0.051 0.944-0.070 3.728-0.205 0.928-0.032 0.944-0.051 1.856-0.070 0.944-0.032 0.928-0.035 0.928-0.019 0.944-0.016 0.928-0.032 0.928-0.019h0.928l0.944-0.032h0.928l0.928-0.019h2.8l0.944-0.016h2.8l0.928 0.016 0.928 0.019h0.944l0.928 0.032h0.928l0.944 0.035 0.928 0.016 0.928 0.035 0.928 0.016 0.944 0.035 0.928 0.032 3.728 0.138 0.944 0.051 1.376 0.051 0.48 0.035 0.944 0.035 0.928 0.048 0.928 0.070 0.944 0.051 1.856 0.134 0.928 0.070 0.944 0.067 0.928 0.070 2.8 0.253 2.8 0.259 0.928 0.099 3.744 0.413 0.928 0.118 0.928 0.102 0.944 0.118 0.928 0.122 2.8 0.358 0.928 0.134 0.928 0.122 0.944 0.134 0.928 0.138 1.872 0.272 1.856 0.275 0.944 0.15 0.928 0.138 0.928 0.173 0.944 0.134 0.928 0.154 0.928 0.173 0.944 0.134 0.928 0.17 0.928 0.173 0.928 0.154 0.944 0.17 0.928 0.173 0.928 0.17 0.944 0.17 0.928 0.173 0.928 0.17 0.944 0.17 0.928 0.17 0.928 0.208 0.944 0.17 0.928 0.189 1.872 0.374 0.928 0.205 0.928 0.17 0.944 0.205 1.856 0.41 0.928 0.189 0.944 0.205 1.856 0.41 0.944 0.221 0.928 0.205 0.928 0.224 0.944 0.205 4.656 1.107 0.944 0.24 0.928 0.221 0.928 0.24 0.944 0.24 0.928 0.256v43.552l-0.928-0.496-0.944-0.477-0.928-0.496-0.928-0.477-0.944-0.477-0.928-0.477-0.928-0.464-0.944-0.461-0.928-0.461-0.928-0.442-0.944-0.461-0.928-0.445-0.928-0.426-0.944-0.426-0.928-0.429-0.928-0.426-0.944-0.426-1.856-0.819-0.928-0.394-0.944-0.394-0.928-0.394-0.928-0.374-0.944-0.39-0.928-0.378-0.928-0.358-0.944-0.358-0.928-0.358-0.928-0.339-0.944-0.342-0.928-0.342-0.928-0.339-0.944-0.342-0.928-0.307-0.928-0.323-0.944-0.307-0.928-0.307-0.928-0.31-2.8-0.867-0.928-0.275-0.944-0.272-1.856-0.512-0.944-0.256-0.928-0.256-0.928-0.24-1.872-0.477-2.8-0.666-0.928-0.205-0.944-0.205-0.928-0.205-0.928-0.189-0.928-0.17-0.944-0.205-0.928-0.173-0.928-0.17-0.944-0.17-0.928-0.17-0.928-0.138-0.944-0.173-0.928-0.118-0.928-0.154-0.944-0.134-0.928-0.122-0.928-0.118-0.944-0.118-0.928-0.122-2.8-0.307-0.928-0.083-2.432-0.224-0.368-0.016-0.928-0.070-0.944-0.067-2.8-0.154-0.928-0.032-0.928-0.035h-0.944l-0.928-0.035h-3.728l-3.728 0.137-0.944 0.067-0.928 0.051-0.928 0.067-0.944 0.086-0.928 0.067-0.928 0.106-0.944 0.099-0.928 0.122-0.928 0.118-2.8 0.41-2.8 0.512-0.928 0.189-0.944 0.221-0.928 0.205-0.928 0.224-0.944 0.237-1.856 0.512-0.944 0.275c-0.31 0.086-0.621 0.179-0.928 0.272l-0.928 0.307c-0.627 0.202-1.251 0.413-1.872 0.63l-0.928 0.342-0.944 0.358-0.928 0.358-0.928 0.394-0.944 0.39-0.928 0.429-0.928 0.426-0.928 0.461-0.944 0.477c-0.624 0.32-1.242 0.65-1.856 0.992l-0.944 0.528c-0.32 0.17-0.624 0.374-0.928 0.563-0.947 0.573-1.882 1.171-2.8 1.792-0.32 0.195-0.627 0.406-0.928 0.63l-0.944 0.682c-0.627 0.467-1.248 0.944-1.856 1.434l-0.944 0.771c-0.314 0.256-0.621 0.518-0.928 0.784l-0.928 0.819c-0.963 0.877-1.898 1.786-2.8 2.73-0.32 0.342-0.64 0.65-0.928 0.992-1.68 1.818-3.238 3.757-4.672 5.802-2.163 3.043-4.042 6.307-5.6 9.744-1.51 3.274-2.758 6.675-3.728 10.173-0.778 2.733-1.402 5.514-1.872 8.326-1.718 10.726-1.718 21.686 0 32.413 0.662 3.856 1.6 7.658 2.8 11.366 1.034 3.117 2.278 6.15 3.728 9.078 1.85 3.661 4.042 7.117 6.544 10.307 1.712 2.202 3.587 4.256 5.6 6.144 0.304 0.291 0.608 0.598 0.928 0.87l0.928 0.835c1.206 1.046 2.451 2.042 3.728 2.989l0.944 0.682 0.928 0.634c0.614 0.419 1.238 0.832 1.872 1.229l1.856 1.126 0.944 0.509c0.611 0.352 1.232 0.694 1.856 1.027l0.944 0.458 0.928 0.461 0.928 0.429 0.928 0.426 0.944 0.394 0.928 0.394 0.928 0.358 0.944 0.358 0.928 0.339c0.928 0.33 1.859 0.643 2.8 0.941l0.928 0.272 0.944 0.272c0.304 0.102 0.608 0.173 0.928 0.256l0.928 0.256 0.944 0.24 0.928 0.221 0.928 0.205 0.944 0.221 0.928 0.173 0.928 0.186 0.928 0.173 0.944 0.17 0.928 0.138 0.928 0.154 0.944 0.118 0.928 0.118 0.928 0.122 1.872 0.205 0.928 0.067 0.944 0.086 0.928 0.067 0.928 0.070 0.944 0.048 0.928 0.035c0.32 0 0.624 0.035 0.928 0.051l0.944 0.019 1.856 0.032h2.8l1.872-0.032 1.856-0.070 2.8-0.154 1.872-0.134 0.368-0.019 0.56-0.051 0.944-0.083 2.784-0.259 0.944-0.102 0.928-0.118 0.928-0.102 0.944-0.118 0.928-0.118 0.928-0.122 1.872-0.272 0.928-0.154 0.944-0.138 0.928-0.17 0.928-0.154 0.944-0.17 0.928-0.173 0.928-0.17 0.944-0.17 0.928-0.173 1.856-0.41 0.944-0.205 1.856-0.41 0.944-0.221 0.928-0.221 0.928-0.24 0.944-0.24 0.928-0.24 0.928-0.237 0.944-0.256 0.928-0.256 0.928-0.275 0.944-0.272 0.928-0.272 0.928-0.291 0.944-0.272 0.928-0.307 0.928-0.291 0.928-0.307 0.944-0.307 1.856-0.646 0.944-0.342 0.928-0.323 0.928-0.342 0.944-0.342 0.928-0.339 0.928-0.362 0.944-0.374 0.928-0.358 0.928-0.374 0.944-0.394 0.928-0.374 0.928-0.394 0.944-0.39 2.784-1.229 0.944-0.429 0.928-0.426 0.928-0.429 0.944-0.426 0.928-0.442 0.928-0.445 0.944-0.461 1.856-0.922 0.944-0.461 0.928-0.477 0.928-0.461 0.944-0.496 0.928-0.477 0.928-0.496 0.944-0.496 0.928-0.493v43.603l-0.928 0.24-1.872 0.477-0.928 0.221-0.944 0.24-0.928 0.224-0.928 0.221-0.944 0.221-0.928 0.221-0.928 0.224-0.944 0.221-1.856 0.41-0.944 0.221-0.928 0.208-0.928 0.202-0.944 0.208-0.928 0.186-1.856 0.41-1.872 0.374-0.928 0.208-0.944 0.17-0.928 0.205-0.928 0.17-1.872 0.374-0.928 0.173-0.944 0.17-0.928 0.189-0.928 0.17-0.944 0.17-0.928 0.173-2.8 0.512-0.928 0.154-0.928 0.17-0.944 0.154-2.8 0.461-0.928 0.138-0.928 0.154-0.944 0.134-0.928 0.154-0.928 0.138-0.944 0.138-0.928 0.138-0.928 0.134-0.944 0.118-0.928 0.138-0.928 0.122-0.944 0.134-0.928 0.118-0.928 0.122-0.928 0.118-0.96 0.118-0.928 0.122-1.872 0.205-0.928 0.118-0.928 0.086-1.872 0.205-0.928 0.086-0.944 0.083-0.928 0.102-0.928 0.086-0.944 0.067-0.928 0.086-4.656 0.342-3.744 0.202-0.48 0.035h-0.432l-1.872 0.102-1.856 0.070-0.944 0.032-0.928 0.035-0.928 0.032-0.944 0.035-0.928 0.016-0.928 0.035h-0.928l-0.944 0.035-0.928 0.016-0.928 0.019h-0.944l-0.928 0.032h-8.4l-1.872-0.032-0.928-0.019-0.928-0.016-0.928-0.035-0.944-0.016-1.856-0.070-0.944-0.016-0.928-0.032-0.928-0.051-0.944-0.035-0.928-0.051-0.928-0.035-2.8-0.154-0.944-0.067-0.928-0.051-2.8-0.204-0.928-0.070-0.928-0.083-0.944-0.067-1.856-0.173-0.944-0.083-0.928-0.102-0.928-0.086-3.744-0.41-0.928-0.122-0.928-0.118-0.944-0.118-0.928-0.122-0.928-0.118-0.944-0.134-2.784-0.413-0.944-0.15-0.928-0.154-0.928-0.138-0.944-0.17-0.928-0.173-0.928-0.154-0.944-0.17-0.928-0.17-0.928-0.173-0.944-0.205-0.928-0.17-0.928-0.205-0.944-0.189-1.856-0.41-0.944-0.221-0.928-0.205-0.928-0.221-0.928-0.24-0.944-0.221-1.856-0.48-0.944-0.256-1.856-0.512-0.944-0.272-0.928-0.256-0.928-0.291-0.944-0.272-0.928-0.291-0.928-0.288-0.944-0.307-0.928-0.31-0.928-0.323-0.944-0.307-0.928-0.339-1.856-0.685-0.944-0.339-1.856-0.717-0.944-0.378-0.928-0.374-0.928-0.394-0.944-0.41-0.928-0.394-0.928-0.426-0.944-0.426-0.928-0.429-0.928-0.442-0.944-0.445-0.928-0.461-0.928-0.477-0.928-0.48-0.944-0.493-1.856-1.024-0.944-0.512-0.928-0.547-0.928-0.544-0.944-0.566-0.928-0.579-0.928-0.598-0.944-0.595-0.928-0.614-0.928-0.63-0.944-0.65-0.928-0.666-0.928-0.682c-0.63-0.461-1.254-0.928-1.872-1.402l-0.928-0.733c-0.947-0.755-1.882-1.53-2.8-2.323h-0.016z" />
<glyph unicode="&#xe93a;" horiz-adv-x="1600" d="M0 864c0 53.019 42.981 96 96 96h1408c53.021 0 96-42.981 96-96v-832c0-53.021-42.979-96-96-96h-1408c-53.019 0-96 42.979-96 96v832z" />
<glyph unicode="&#xe93b;" horiz-adv-x="1600" d="M1404.506 429.482c-20.506 0-37.136-17.066-37.136-38.058 0-21.034 16.63-38.102 37.136-38.102 20.547 0 37.178 17.069 37.178 38.102 0.045 10.042-3.846 19.69-10.816 26.826-6.973 7.136-16.454 11.178-26.362 11.232zM1282.272 458.922c0 28.845-24 52.182-53.642 52.182s-53.642-23.338-53.642-52.138c0-28.8 24-52.182 53.642-52.182s53.642 23.382 53.642 52.182v-0.045zM1282.483 560.298h59.2v-202.666h-59.2v12.928c-17.242-12.099-37.722-18.573-58.694-18.56-57.642 0-104.336 47.872-104.336 106.966 0 59.050 46.736 106.922 104.336 106.922 21.77 0 41.936-6.826 58.694-18.56v12.97zM808.672 533.888v26.41h-60.63v-202.666h60.758v94.592c0 31.958 33.77 49.066 57.222 49.066h0.672v58.966c-24 0-46.147-10.538-58.022-26.368zM657.683 458.966c0 28.8-24 52.138-53.642 52.138-29.6 0-53.642-23.338-53.642-52.138s24-52.182 53.642-52.182c29.642 0 53.642 23.382 53.642 52.182zM657.894 560.298h59.2v-202.666h-59.2v12.928c-17.254-12.106-37.75-18.582-58.736-18.56-57.6 0-104.336 47.872-104.336 106.966 0 59.050 46.736 106.922 104.336 106.922 21.766 0 41.978-6.826 58.694-18.56v12.97h0.042zM1014.23 565.76c-23.619 0-46.019-7.552-60.966-28.288v22.826h-58.947v-202.666h59.661v106.496c0 30.806 20.17 45.91 44.422 45.91 26.022 0 40.97-15.958 40.97-45.485v-106.963h59.155v128.896c0 47.187-36.63 79.274-84.294 79.274zM408.63 357.546h61.981v293.121h-61.981v-293.121zM136.421 357.546h65.6v293.121h-65.6v-293.121zM365.894 650.667c0.166-30.843-5.674-61.416-17.181-89.969-11.51-28.554-28.464-54.525-49.893-76.432l90.696-126.72h-81.054l-98.568 137.728 25.431 19.542c20.745 15.84 37.552 36.368 49.080 59.955s17.459 49.574 17.32 75.896h64.168z" />
<glyph unicode="&#xe93c;" horiz-adv-x="1600" d="M0 864c0 53.019 42.981 96 96 96h1408c53.021 0 96-42.981 96-96v-832c0-53.021-42.979-96-96-96h-1408c-53.019 0-96 42.979-96 96v832z" />
<glyph unicode="&#xe93d;" horiz-adv-x="1600" d="M631.581 149.331c162.778 0 294.736 133.718 294.736 298.669 0 164.947-131.958 298.666-294.736 298.666s-294.736-133.719-294.736-298.666c0-164.95 131.958-298.669 294.736-298.669z" />
<glyph unicode="&#xe93e;" horiz-adv-x="1600" d="M968.426 149.331c162.778 0 294.736 133.718 294.736 298.669 0 164.947-131.958 298.666-294.736 298.666-162.781 0-294.739-133.719-294.739-298.666 0-164.95 131.958-298.669 294.739-298.669z" />
<glyph unicode="&#xe93f;" horiz-adv-x="1600" d="M926.32 448c0 102.4-50.528 192-126.317 243.199-75.789-55.468-126.317-145.068-126.317-243.199 0-98.134 50.528-192 126.317-243.2 75.789 51.2 126.317 140.8 126.317 243.2z" />
<glyph unicode="&#xe940;" horiz-adv-x="1600" d="M0 864c0 53.019 42.981 96 96 96h1408c53.021 0 96-42.981 96-96v-832c0-53.021-42.979-96-96-96h-1408c-53.019 0-96 42.979-96 96v832z" />
<glyph unicode="&#xe941;" horiz-adv-x="1600" d="M799.99 207.818c-54.47-47.008-125.13-75.386-202.342-75.386-172.282 0-311.943 141.283-311.943 315.568 0 174.282 139.661 315.564 311.943 315.564 77.213 0 147.872-28.377 202.342-75.384 54.47 47.007 125.13 75.384 202.342 75.384 172.282 0 311.942-141.282 311.942-315.564 0-174.285-139.661-315.568-311.942-315.568-77.213 0-147.872 28.378-202.342 75.386z" />
<glyph unicode="&#xe942;" horiz-adv-x="1600" d="M799.99 207.818c67.072 57.878 109.603 144.006 109.603 240.182 0 96.173-42.531 182.301-109.603 240.18 54.474 47.007 125.13 75.384 202.342 75.384 172.282 0 311.942-141.282 311.942-315.564 0-174.285-139.661-315.568-311.942-315.568-77.213 0-147.869 28.378-202.342 75.386z" />
<glyph unicode="&#xe943;" horiz-adv-x="1600" d="M799.99 688.178c67.072-57.88 109.603-144.005 109.603-240.181 0-96.173-42.531-182.298-109.603-240.179-67.069 57.882-109.6 144.006-109.6 240.179 0 96.176 42.531 182.301 109.6 240.181z" />
<glyph unicode="&#xe944;" horiz-adv-x="1600" d="M0 864c0 53.019 42.981 96 96 96h1408c53.021 0 96-42.981 96-96v-832c0-53.021-42.979-96-96-96h-1408c-53.019 0-96 42.979-96 96v832z" />
<glyph unicode="&#xe945;" horiz-adv-x="1600" d="M1006.32 605.866c8.419 42.667 0 72.534-25.264 98.134-25.264 29.867-71.581 42.667-130.528 42.667h-172.63c-12.63 0-21.053-8.533-25.264-21.333l-63.158-430.933c0-8.534 4.211-17.069 12.634-17.069h113.683l16.842 145.069 75.789 93.866 197.898 89.6z" />
<glyph unicode="&#xe946;" horiz-adv-x="1600" d="M1006.32 605.866l-8.419-8.531c-21.053-119.469-92.63-162.134-193.683-162.134h-46.317c-12.63 0-21.053-8.534-25.264-21.334l-25.264-166.4-8.419-42.666c0-8.534 4.211-17.066 12.63-17.066h88.422c12.63 0 21.053 8.531 21.053 17.066v4.266l16.842 102.4v4.269c0 8.531 12.63 17.066 21.053 17.066h12.63c88.422 0 155.789 34.134 172.634 136.534 8.419 42.666 4.208 76.8-16.845 102.4-4.208 21.331-12.63 29.866-21.053 34.131z" />
<glyph unicode="&#xe947;" horiz-adv-x="1600" d="M981.046 614.4c-4.211 4.266-8.422 4.266-12.63 4.266-4.211 0-8.422 0-12.634 4.266-12.63 4.269-29.472 4.269-46.317 4.269h-126.314c-4.211 0-8.422 0-8.422-4.269-8.419-4.266-12.63-8.531-12.63-17.066l-29.475-187.734v-4.266c0 12.8 12.634 21.334 25.264 21.334h54.736c105.264 0 172.634 42.666 193.686 162.131v8.534c-4.211 4.266-12.634 8.534-21.053 8.534h-4.211z" />
<glyph unicode="&#xe948;" horiz-adv-x="1600" d="M0 864c0 53.019 42.981 96 96 96h1408c53.021 0 96-42.981 96-96v-832c0-53.021-42.979-96-96-96h-1408c-53.019 0-96 42.979-96 96v832z" />
<glyph unicode="&#xe949;" horiz-adv-x="1600" d="M503.002 291.197h-61.677c-4.221 0-7.811-3.296-8.47-7.776l-24.947-170.080c-0.496-3.354 1.923-6.381 5.088-6.381h29.446c4.221 0 7.811 3.296 8.467 7.789l6.73 45.872c0.65 4.49 4.246 7.789 8.461 7.789h19.523c40.63 0 64.080 21.139 70.205 63.037 2.758 18.33 0.115 32.733-7.866 42.819-8.765 11.075-24.314 16.931-44.96 16.931zM510.118 229.082c-3.373-23.802-20.282-23.802-36.634-23.802h-9.309l6.531 44.448c0.387 2.685 2.55 4.666 5.078 4.666h4.266c11.136 0 21.645 0 27.072-6.829 3.238-4.074 4.23-10.125 2.995-18.483z" />
<glyph unicode="&#xe94a;" horiz-adv-x="1600" d="M687.373 229.869h-29.536c-2.515 0-4.691-1.978-5.078-4.666l-1.306-8.883-2.067 3.219c-6.394 9.981-20.653 13.315-34.883 13.315-32.64 0-60.518-26.582-65.946-63.872-2.826-18.602 1.19-36.387 11.002-48.79 9.002-11.405 21.878-16.157 37.203-16.157 26.298 0 40.883 18.182 40.883 18.182l-1.318-8.826c-0.496-3.373 1.92-6.4 5.069-6.4h26.605c4.23 0 7.802 3.296 8.47 7.789l15.962 108.707c0.506 3.344-1.901 6.381-5.059 6.381zM646.202 168.051c-2.848-18.144-16.243-30.326-33.325-30.326-8.576 0-15.43 2.96-19.83 8.563-4.365 5.568-6.026 13.491-4.637 22.317 2.659 17.99 16.278 30.57 33.098 30.57 8.39 0 15.206-2.998 19.699-8.653 4.499-5.712 6.285-13.683 4.995-22.47z" />
<glyph unicode="&#xe94b;" horiz-adv-x="1600" d="M844.685 229.869h-29.68c-2.832 0-5.494-1.514-7.098-4.045l-40.938-64.842-17.35 62.31c-1.091 3.901-4.438 6.576-8.227 6.576h-29.165c-3.546 0-6.010-3.725-4.88-7.312l32.691-103.171-30.736-46.656c-2.416-3.677 0.019-8.73 4.195-8.73h29.645c2.813 0 5.446 1.475 7.043 3.958l98.72 153.232c2.365 3.664-0.064 8.678-4.221 8.678z" />
<glyph unicode="&#xe94c;" horiz-adv-x="1600" d="M942.947 291.219h-61.686c-4.214 0-7.802-3.296-8.461-7.776l-24.947-170.080c-0.496-3.354 1.923-6.381 5.069-6.381h31.658c2.941 0 5.456 2.307 5.917 5.45l7.078 48.211c0.65 4.49 4.25 7.789 8.461 7.789h19.517c40.637 0 64.077 21.139 70.211 63.037 2.768 18.33 0.109 32.733-7.875 42.819-8.755 11.075-24.294 16.931-44.941 16.931zM950.064 229.104c-3.363-23.802-20.275-23.802-36.634-23.802h-9.299l6.538 44.448c0.39 2.685 2.534 4.666 5.069 4.666h4.266c11.13 0 21.648 0 27.075-6.829 3.238-4.074 4.221-10.125 2.986-18.483z" />
<glyph unicode="&#xe94d;" horiz-adv-x="1600" d="M1127.312 229.869h-29.52c-2.534 0-4.688-1.978-5.069-4.666l-1.306-8.883-2.077 3.219c-6.394 9.981-20.643 13.315-34.874 13.315-32.64 0-60.509-26.582-65.939-63.872-2.813-18.602 1.184-36.387 10.995-48.79 9.018-11.405 21.878-16.157 37.203-16.157 26.298 0 40.883 18.182 40.883 18.182l-1.318-8.826c-0.496-3.373 1.923-6.4 5.088-6.4h26.595c4.211 0 7.802 3.296 8.461 7.789l15.971 108.707c0.486 3.344-1.93 6.381-5.094 6.381zM1086.141 168.051c-2.832-18.144-16.243-30.326-33.325-30.326-8.56 0-15.43 2.96-19.834 8.563-4.365 5.568-6.006 13.491-4.634 22.317 2.678 17.99 16.278 30.57 33.098 30.57 8.387 0 15.206-2.998 19.699-8.653 4.518-5.712 6.304-13.683 4.995-22.47z" />
<glyph unicode="&#xe94e;" horiz-adv-x="1600" d="M1162.138 286.554l-25.315-173.19c-0.496-3.354 1.92-6.381 5.069-6.381h25.45c4.23 0 7.821 3.299 8.47 7.789l24.963 170.067c0.496 3.357-1.92 6.39-5.069 6.39h-28.499c-2.515-0.010-4.682-1.987-5.069-4.675z" />
<glyph unicode="&#xe94f;" horiz-adv-x="1600" d="M956.579 722.438c4.893 33.549-0.032 56.371-16.906 77.050-18.576 22.761-52.138 32.512-95.075 32.512h-124.637c-8.774 0-16.25-6.865-17.613-16.19l-51.904-353.9c-1.021-6.982 4-13.296 10.566-13.296h76.947l-5.312-36.214c-0.893-6.109 3.494-11.629 9.245-11.629h64.861c7.674 0 14.211 6.003 15.408 14.16l0.637 3.549 12.218 83.315 0.787 4.602c1.197 8.154 7.731 14.166 15.408 14.166h9.699c62.835 0 112.035 27.446 126.406 106.832 6.010 33.172 2.902 60.861-12.982 80.328-4.8 5.877-10.781 10.744-17.754 14.714z" />
<glyph unicode="&#xe950;" horiz-adv-x="1600" d="M956.579 722.438c4.893 33.549-0.032 56.371-16.906 77.050-18.576 22.761-52.138 32.512-95.075 32.512h-124.637c-8.774 0-16.25-6.865-17.613-16.19l-51.904-353.9c-1.021-6.982 4-13.296 10.566-13.296h76.947l19.328 131.802-0.602-4.131c1.37 9.318 8.774 16.189 17.552 16.189h36.576c71.824 0 128.064 31.379 144.493 122.124 0.49 2.679 0.902 5.284 1.274 7.84z" />
<glyph unicode="&#xe951;" horiz-adv-x="1600" d="M778.051 721.994c0.822 5.604 4.173 10.199 8.678 12.518 2.045 1.054 4.336 1.643 6.733 1.643h97.702c11.574 0 22.368-0.817 32.23-2.526 2.819-0.487 5.565-1.050 8.23-1.687s5.254-1.344 7.757-2.135c1.254-0.391 2.483-0.808 3.696-1.238 4.845-1.731 9.36-3.769 13.51-6.136 4.893 33.548-0.035 56.371-16.909 77.050-18.582 22.765-52.144 32.516-95.082 32.516h-124.637c-8.774 0-16.25-6.865-17.613-16.19l-51.904-353.9c-1.021-6.982 4-13.296 10.566-13.296h76.947l40.093 273.38z" />
<glyph unicode="&#xe952;" horiz-adv-x="1600" d="M0 864c0 53.019 42.981 96 96 96h1408c53.021 0 96-42.981 96-96v-832c0-53.021-42.979-96-96-96h-1408c-53.019 0-96 42.979-96 96v832z" />
<glyph unicode="&#xe953;" horiz-adv-x="1600" d="M900.298 545.578c0-71.168-49.558-121.939-118.781-121.939h-65.219c-1.078-0.019-2.128-0.349-3.024-0.954s-1.6-1.459-2.029-2.461c-0.275-0.662-0.419-1.373-0.422-2.090v-93.526c0-0.726-0.141-1.446-0.416-2.115-0.275-0.672-0.682-1.28-1.19-1.792s-1.11-0.915-1.776-1.19c-0.662-0.275-1.373-0.413-2.090-0.406h-45.645c-1.45 0-2.842 0.586-3.869 1.626s-1.603 2.451-1.603 3.92v337.281c-0.016 1.099 0.294 2.177 0.896 3.092s1.466 1.622 2.474 2.028c0.666 0.283 1.382 0.428 2.102 0.427h122.106c68.928 0 118.486-50.773 118.486-121.941v0.042zM843.37 545.578c0 40.877-27.706 70.742-65.264 70.742h-61.808c-0.72 0-1.43-0.144-2.096-0.422-0.662-0.278-1.267-0.688-1.776-1.203s-0.912-1.126-1.187-1.798c-0.275-0.672-0.416-1.395-0.416-2.122v-130.134c-0.006-0.73 0.131-1.453 0.406-2.128s0.682-1.286 1.194-1.798c0.509-0.515 1.11-0.925 1.776-1.203s1.379-0.419 2.099-0.416h61.808c37.558-0.214 65.264 29.651 65.264 70.483zM913.856 383.83c-0.483 10.931 1.76 21.808 6.522 31.629s11.888 18.266 20.72 24.563c17.808 13.482 45.642 20.48 86.525 21.93l43.494 1.536v12.928c0 25.898-17.261 36.822-44.966 36.822s-45.264-9.856-49.264-26.029c-0.342-1.136-1.040-2.125-1.99-2.819-0.954-0.694-2.102-1.053-3.274-1.021h-43.030c-1.184-0.016-2.342 0.358-3.299 1.069-0.957 0.707-1.661 1.709-2.006 2.858-0.227 0.758-0.285 1.562-0.17 2.346 6.4 38.317 38.064 67.414 105.011 67.414 71.242 0 96.97-33.408 96.97-97.11v-135.338c-0.006-0.733-0.154-1.456-0.438-2.131-0.282-0.672-0.694-1.283-1.21-1.795-0.518-0.509-1.13-0.912-1.802-1.184-0.669-0.272-1.386-0.406-2.109-0.394h-43.37c-1.45 0-2.845 0.586-3.869 1.626-1.027 1.040-1.603 2.451-1.603 3.92v10.070c0.013 0.835-0.227 1.654-0.685 2.349-0.461 0.694-1.117 1.229-1.885 1.533-0.758 0.304-1.59 0.378-2.39 0.211s-1.536-0.566-2.115-1.149c-13.053-14.25-34.019-24.534-67.664-24.534-49.472 0-82.102 25.901-82.102 70.701zM1071.117 413.142v10.496l-56.378-2.989c-29.683-1.536-46.947-13.907-46.947-34.816 0-18.944 15.83-29.44 43.536-29.44 37.6 0 59.789 20.48 59.789 56.749zM1168.634 216.874v39.213c0.010 0.819 0.202 1.629 0.557 2.368 0.358 0.736 0.87 1.386 1.507 1.898 0.627 0.515 1.36 0.886 2.147 1.085 0.784 0.198 1.603 0.221 2.4 0.067 6.653-1.238 13.389-1.878 20.166-1.878 11.613-0.643 23.101 2.694 32.611 9.475s16.49 16.608 19.811 27.901l2.822 9.005c0.419 1.213 0.419 2.538 0 3.754l-90.317 233.43c-0.525 1.28-0.554 2.714-0.086 4.016s1.398 2.381 2.611 3.024c0.806 0.429 1.702 0.65 2.611 0.64h43.789c1.126-0.003 2.221-0.352 3.146-1.002 0.925-0.646 1.635-1.562 2.035-2.627l61.306-164.65c0.378-1.107 1.091-2.064 2.035-2.736 0.944-0.675 2.070-1.030 3.226-1.018 1.152 0 2.275 0.362 3.219 1.034 0.941 0.672 1.654 1.622 2.045 2.72l53.264 164.182c0.362 1.13 1.072 2.115 2.026 2.806 0.957 0.691 2.106 1.053 3.28 1.034h45.306c1.357-0.010 2.669-0.515 3.69-1.424s1.683-2.163 1.866-3.526c0.102-0.912-0.013-1.834-0.336-2.688l-96.63-259.242c-22.234-60.288-60.336-75.648-102.317-75.648-7.965-0.224-15.923 0.723-23.619 2.816-1.293 0.32-2.426 1.098-3.2 2.195-0.771 1.094-1.13 2.435-1.011 3.776h0.042zM360.845 686.933c-57.454 0.435-112.909-21.338-155.075-60.885-1.794-1.654-2.914-3.926-3.14-6.374-0.226-2.445 0.459-4.89 1.919-6.851l26.021-35.798c0.843-1.206 1.938-2.211 3.208-2.941s2.682-1.168 4.137-1.28c1.455-0.115 2.917 0.096 4.282 0.621 1.365 0.522 2.6 1.344 3.616 2.406 15.155 15.248 33.153 27.29 52.945 35.421s40.984 12.189 62.34 11.939c89.261 0 135.872-67.584 135.872-134.4 0-72.534-48.966-123.648-119.366-124.63-54.4 0-95.412 36.266-95.412 84.224 0.046 12.128 2.766 24.090 7.96 35.014s12.731 20.538 22.060 28.131c1.987 1.651 3.248 4.032 3.508 6.624 0.26 2.589-0.501 5.178-2.118 7.2l-27.369 34.774c-0.826 1.069-1.857 1.958-3.031 2.611-1.174 0.656-2.467 1.062-3.8 1.2-1.333 0.134-2.68-0.003-3.959-0.41s-2.464-1.069-3.483-1.952c-16.762-13.626-30.312-30.867-39.663-50.474-9.317-19.562-14.167-40.998-14.19-62.72 0-82.56 69.684-147.286 158.949-147.798h1.261c105.981 1.366 182.611 80.384 182.611 188.374 0 95.872-70.189 197.973-200.083 197.973z" />
<glyph unicode="&#xe954;" horiz-adv-x="1600" d="M0 864c0 53.019 42.981 96 96 96h1408c53.021 0 96-42.981 96-96v-832c0-53.021-42.979-96-96-96h-1408c-53.019 0-96 42.979-96 96v832z" />
<glyph unicode="&#xe955;" horiz-adv-x="1600" d="M1016.467 642.164c-22.445 0-40.672-18.132-40.672-40.484 0-22.368 18.227-40.461 40.672-40.461 22.483 0 40.694 18.093 40.694 40.461 0 22.352-18.211 40.484-40.694 40.484z" />
<glyph unicode="&#xe956;" horiz-adv-x="1600" d="M429.773 506.522c-10.429 0.669-34.592 2.234-34.592 23.862 0 26.102 34.762 26.102 47.808 26.102 22.947 0 52.634-6.733 73.859-13.056 0 0 11.818-4.157 21.875-8.39l0.938-0.262v71.488l-1.254 0.384c-25.059 8.717-54.154 17.091-108.118 17.091-93.040 0-126.003-53.894-126.003-100.115 0-26.611 11.473-89.306 117.993-96.525l0.099-0.006c9.126-0.557 32.931-2.006 32.931-24.278 0-18.461-19.629-29.322-52.634-29.322-36.163 0-71.267 9.152-92.574 17.869v-73.606c31.906-8.352 67.886-12.48 110.050-12.48 90.934 0 131.699 51.005 131.699 101.574 0 57.315-45.587 94.566-122.077 99.67z" />
<glyph unicode="&#xe957;" horiz-adv-x="1600" d="M704.352 538.294l0.419 1.085h97.411c-2.774-8.822-20.157-62.064-59.782-112.054 0 0 44.134-76.934 54.218-118.669h-101.997c0 0-12.189 55.411-36.851 92.227v-92.227h-85.174v298.32l85.174 16.765v-164.595c30.179 36.314 43.626 71.43 46.582 79.149z" />
<glyph unicode="&#xe958;" horiz-adv-x="1600" d="M1213.222 308.656v300.4l82.541 14.685v-315.085h-82.541z" />
<glyph unicode="&#xe959;" horiz-adv-x="1600" d="M928.675 542.496c-76.25-2.445-114.992-36.502-114.992-104.192v-129.648h83.219v105.744c0 40.512 5.338 57.882 53.677 59.539v67.36c-8.131 1.722-21.904 1.197-21.904 1.197z" />
<glyph unicode="&#xe95a;" horiz-adv-x="1600" d="M975.226 308.656v230.461h82.531v-230.461h-82.531z" />
<glyph unicode="&#xe95b;" horiz-adv-x="1600" d="M1092.733 609.056l82.493 14.685v-315.085h-82.493v300.4z" />
<glyph unicode="&#xe95c;" horiz-adv-x="1600" d="M0 864c0 53.019 42.981 96 96 96h1408c53.021 0 96-42.981 96-96v-832c0-53.021-42.979-96-96-96h-1408c-53.019 0-96 42.979-96 96v832z" />
<glyph unicode="&#xe95d;" horiz-adv-x="1600" d="M718.931 280.467h-98.502l61.61 353.136h98.499l-61.606-353.136z" />
<glyph unicode="&#xe95e;" horiz-adv-x="1600" d="M1076.019 624.966c-19.43 7.146-50.246 15.034-88.349 15.034-97.277 0-165.779-48.083-166.198-116.829-0.81-50.72 49.043-78.893 86.33-95.805 38.112-17.28 51.066-28.56 51.066-43.965-0.387-23.658-30.797-34.563-59.155-34.563-39.328 0-60.4 5.622-92.422 18.784l-12.973 5.645-13.782-79.274c23.101-9.757 65.667-18.413 109.859-18.794 103.357 0 170.646 47.341 171.443 120.598 0.394 40.202-25.93 71.005-82.685 96.176-34.451 16.157-55.552 27.053-55.552 43.584 0.406 15.030 17.846 30.422 56.739 30.422 32.022 0.755 55.552-6.381 73.376-13.52l8.909-3.75 13.395 76.256z" />
<glyph unicode="&#xe95f;" horiz-adv-x="1600" d="M1206.941 405.571c8.112 20.285 39.325 98.803 39.325 98.803-0.406-0.755 8.099 20.662 12.963 33.808l6.883-30.429c0 0 18.653-84.528 22.704-102.182-15.395 0-62.419 0-81.875 0zM1328.531 633.603h-76.192c-23.498 0-41.347-6.381-51.485-29.299l-146.317-323.834h103.357c0 0 17.018 43.587 20.675 52.973 11.338 0 111.885 0 126.47 0 2.829-12.397 11.754-52.973 11.754-52.973h91.206l-79.469 353.133z" />
<glyph unicode="&#xe960;" horiz-adv-x="1600" d="M538.154 633.603l-96.47-240.806-10.541 48.838c-17.837 56.352-73.77 117.581-136.189 148.022l88.362-308.816h104.166l154.832 352.762h-104.16z" />
<glyph unicode="&#xe961;" horiz-adv-x="1600" d="M352.106 633.603h-158.484l-1.621-7.136c123.628-29.306 205.504-99.942 239.142-184.848l-34.451 162.298c-5.674 22.557-23.104 28.941-44.586 29.686z" />
<glyph unicode="&#xe962;" glyph-name="add" d="M512 821.333c17.673 0 32-14.327 32-32v-309.333h309.333c17.673 0 32-14.327 32-32s-14.327-32-32-32h-309.333v-309.333c0-17.673-14.327-32-32-32s-32 14.327-32 32v309.333h-309.333c-17.673 0-32 14.327-32 32s14.327 32 32 32h309.333v309.333c0 17.673 14.327 32 32 32zM469.333 789.333c0 23.564 19.102 42.667 42.667 42.667s42.667-19.103 42.667-42.667v-298.667h298.667c23.565 0 42.667-19.102 42.667-42.667s-19.102-42.667-42.667-42.667h-298.667v-298.667c0-23.565-19.102-42.667-42.667-42.667s-42.667 19.102-42.667 42.667v298.667h-298.667c-23.564 0-42.667 19.102-42.667 42.667s19.103 42.667 42.667 42.667h298.667v298.667zM512 810.667c-11.78 0-21.333-9.551-21.333-21.333v-309.333c0-5.892-4.774-10.667-10.667-10.667h-309.333c-11.782 0-21.333-9.553-21.333-21.333s9.551-21.333 21.333-21.333h309.333c5.892 0 10.667-4.774 10.667-10.667v-309.333c0-11.78 9.553-21.333 21.333-21.333s21.333 9.553 21.333 21.333v309.333c0 5.892 4.774 10.667 10.667 10.667h309.333c11.78 0 21.333 9.553 21.333 21.333s-9.553 21.333-21.333 21.333h-309.333c-5.892 0-10.667 4.774-10.667 10.667v309.333c0 11.782-9.553 21.333-21.333 21.333z" />
<glyph unicode="&#xe963;" glyph-name="adult" d="M493.043 935.822c-1.421-0.197-6.272-0.779-10.778-1.294-79.38-9.062-150.674-60.356-185.656-133.575-9.438-19.754-16.722-41.585-20.055-60.111l-1.591-8.84-5.618-3.221c-8.446-4.842-18.022-14.761-21.853-22.634-7.639-15.702-7.967-26.27-1.99-64.226 2.24-14.225 4.46-28.576 4.932-31.893 2.624-18.41 16.542-31.060 36.182-32.885l5.757-0.535 4.018-10.238c19.091-48.639 47.652-93.456 80.7-126.638 50.791-50.991 109.257-71.697 167.877-59.456 36.74 7.671 74.492 30.251 106.325 63.595 30.306 31.74 57.549 75.247 75.819 121.079l5.402 13.548 5.308 1.766c11.204 3.729 21.986 11.746 28.297 21.041 3.52 5.184 8.363 17.289 8.384 20.963 0.009 1.044 1.771 10.936 3.917 21.983 6.558 33.755 6.558 33.748 5.559 41.809-2.313 18.586-13.103 35.154-28.096 43.122l-5.222 2.777-1.101 6.275c-3.529 20.048-14.985 50.443-27.268 72.361-25.818 46.051-61.547 80.74-105.109 102.044-33.101 16.188-61.257 22.706-100.433 23.25-11.614 0.161-22.285 0.131-23.706-0.066zM539.166 884.102c24.414-3.543 50.133-12.867 70.639-25.612 5.777-3.59 25.054-17.675 25.054-18.305 0-0.393-8.017 3.36-45.692 21.398-14.464 6.924-26.799 12.704-27.413 12.846-0.704 0.162-2.466-3.116-4.757-8.854-7.791-19.494-21.786-40.22-38.084-56.408-22.763-22.607-48.525-35.844-79.821-41.014-6.874-1.135-104.241-2.271-104.241-1.216 0 1.103 10.127 20.751 13.767 26.712 28.854 47.238 77.267 80.323 131.238 89.687 18.159 3.15 40.853 3.443 59.311 0.765zM639.381 783.138l53.265-25.597 2.052-6.516c4.804-15.245 8.631-37.239 9.685-55.659l0.563-9.91h12.753c12.203 0 12.855-0.089 15.147-2.060l2.398-2.060-1.084-6.346c-0.597-3.49-2.705-14.686-4.681-24.88-2.94-15.149-3.951-18.889-5.534-20.475-1.839-1.839-2.611-1.94-14.874-1.94h-12.937l-1.771-6.25c-22.080-77.904-68.254-145.841-119.855-176.343-47.283-27.947-95.39-23.057-142.677 14.507-9.299 7.386-26.081 24.32-34.7 35.017-27.479 34.103-49.971 77.734-62.698 121.628l-3.306 11.403-29.374 0.471-1.92 14.36c-1.861 13.927-5.687 34.995-7.201 39.654-0.996 3.066 0.027 3.287 15.274 3.302 6.756 0.007 12.288 0.303 12.29 0.659s0.777 7.047 1.719 14.871c0.942 7.823 1.716 14.515 1.719 14.871s24.232 0.646 53.841 0.646c58.139 0 63.771 0.324 83.965 4.835 19.401 4.334 42.483 13.783 59.537 24.371 22.336 13.867 44.553 34.909 59.58 56.434 2.539 3.631 4.826 6.603 5.082 6.603 0.26 0 24.444-11.518 53.739-25.597zM684.924 403.332c-3.678-9.468-108.821-269.129-109.282-269.875-0.337-0.542-4.386 24.802-9.003 56.32s-8.619 58.761-8.892 60.54l-0.499 3.234h10.368l28.002 56.034-28.002 56.034h-107.759l-13.794-27.58c-7.59-15.172-13.798-28.164-13.798-28.877s6.11-13.517 13.572-28.454l13.572-27.157h5.41c5.167 0 5.393-0.090 4.979-1.941-0.239-1.067-4.126-28.126-8.64-60.13s-8.499-59.307-8.853-60.672c-0.546-2.103-8.832 17.839-54.431 131.038-29.582 73.434-54.075 133.845-54.43 134.242-0.709 0.794-114.665-34.752-127.132-39.659-16.994-6.686-37.904-19.068-53.876-31.906-42.058-33.801-70.605-86.784-75.865-140.804-0.662-6.801-0.882-37.513-0.7-97.847l0.265-87.932 2.191-5.615c5.982-15.343 18.21-26.522 33.684-30.797 5.223-1.442 25.272-1.519 389.998-1.519s384.777 0.077 389.999 1.519c17.254 4.766 30.686 18.458 35.029 35.699 1.182 4.689 1.306 16.324 1.037 97.847-0.303 91.17-0.337 92.672-2.21 102.438-4.429 23.108-9.634 38.959-19.127 58.257-20.574 41.83-55.287 76.527-96.96 96.922-7.040 3.443-35.75 14.942-68.898 27.593-31.253 11.925-58.709 22.426-61.013 23.334l-4.19 1.651-0.751-1.937zM751.97 325.5c20.698-7.846 41.51-16.145 46.251-18.453 27.059-13.146 51.349-35.43 67.243-61.687 11.942-19.721 19.836-44.322 21.999-68.535 0.64-7.159 0.87-33.207 0.691-77.589l-0.273-66.812-2.398-4.881c-3.072-6.255-8.41-11.601-14.413-14.434l-4.74-2.236-285.747-0.452 0.747 1.95c1.271 3.298 123.243 305.579 127.846 316.83 2.377 5.807 4.51 10.56 4.74 10.56 0.235 0 17.357-6.417 38.054-14.259zM378.385 173.726c35.561-88.93 64.789-162.057 64.947-162.5 0.179-0.499-54.237-0.717-142.676-0.58l-142.967 0.226-4.905 2.406c-5.98 2.94-12.838 10.18-15.041 15.881-1.491 3.861-1.611 8.363-1.867 70.076-0.179 43.191 0.056 69.82 0.68 77.158 3.439 40.422 20.261 75.819 49.038 103.172 17.377 16.521 37.518 28.233 61.885 35.989 26.976 8.593 63.688 19.797 64.956 19.831 0.924 0.030 19.755-46.131 65.95-161.66zM536.734 311.957c1.199-2.526 1.199-3.081-0.004-5.606l-1.331-2.799h-46.78l-1.331 2.799c-1.203 2.526-1.203 3.081-0.004 5.606l1.331 2.799h46.788l1.331-2.799zM526.639 121.869l12.454-82.974-11.686-28.023h-29.090l-10.138 23.275 12.343 87.829c8.563 60.924 12.544 87.066 13.001 85.346 0.363-1.365 6.263-39.817 13.116-85.453z" />
<glyph unicode="&#xe964;" glyph-name="area" d="M389.735 959.315c-1.885-0.471-4.661-1.496-6.17-2.277-3.565-1.845-104.892-86.341-107.463-89.613-2.822-3.59-5.655-11.749-5.655-16.282 0-5.104 2.011-11.644 4.947-16.083 1.407-2.127 23.33-21.052 54.427-46.982 56.743-47.314 55.906-46.732 66.996-46.564 20.112 0.303 33.105 22.792 23.323 40.372-2.178 3.915-6.623 8.113-24.266 22.921l-21.6 18.128 164.874 0.23c57.579 0.127 152.026 0.127 209.886 0l171.401-0.23-19.635-16.281c-10.799-8.954-21.201-18.062-23.113-20.239-7.040-8.001-8.474-19.845-3.601-29.75 3.191-6.486 6.511-9.635 13.602-12.912 6.921-3.194 14.882-3.18 21.739 0.041 3.358 1.579 21.636 16.229 56.149 45.005 55.202 46.030 55.859 46.676 58.014 57.062 1.229 5.931-0.388 14.205-3.853 19.663-2.999 4.734-102.972 88.108-109.726 91.507-4.254 2.143-6.49 2.674-11.319 2.692-7.501 0.027-11.605-1.363-17.28-5.85-10.991-8.698-13.547-25.857-5.504-36.97 1.489-2.061 12.13-11.607 23.642-21.213l20.932-17.465-171.426-0.23c-57.869-0.127-152.358-0.127-209.975 0l-164.939 0.23 21.87 18.301c19.813 16.581 22.111 18.796 24.452 23.566 3.463 7.059 3.689 17.52 0.518 23.962-5.622 11.422-19.497 18.198-31.247 15.26zM332.442 693.956c-12.856-1.978-22.849-5.786-33.2-12.648-17.37-11.516-29.71-30.713-32.861-51.12-0.784-5.082-0.98-85.629-0.775-319.054 0.265-301.871 0.33-312.448 1.968-318.144 4.177-14.528 11.537-26.522 22.585-36.796 9.753-9.071 18.473-13.914 32.829-18.236 5.112-1.54 20.87-1.63 318.275-1.869 282.185-0.222 313.6-0.107 320.034 1.186 28.809 5.786 50.048 25.353 59.196 54.545l2.5 7.966v629.042l-2.031 7.704c-7.002 26.588-26.355 46.592-53.214 55.004l-8.154 2.552-312.444 0.108c-171.844 0.059-313.464-0.049-314.709-0.241zM786.394 496.721l-142.413-142.532-284.822 285.063h569.643l-142.409-142.531zM96.691 691.014c-5.539-2.849-7.262-4.78-49.385-55.328-48.711-58.452-47.988-57.395-47.064-68.851 0.604-7.479 3.803-13.853 9.449-18.827 4.868-4.289 10.613-6.318 17.893-6.318 12.005 0 15.019 2.298 35.878 27.35 9.475 11.379 17.396 20.689 17.604 20.689s0.378-177.92 0.378-293.124v-253.303l-16.792 20.254c-9.236 11.14-18.427 21.555-20.426 23.142-13.249 10.534-33.747 5.931-41.165-9.246-3.213-6.575-3.842-14.106-1.736-20.804 1.439-4.578 6.253-10.735 42.799-54.716 22.647-27.251 42.856-51.319 44.909-53.478 9.687-10.197 24.237-12.011 35.313-4.395 2.813 1.933 18.369 19.908 47.207 54.549 46.488 55.838 46.642 56.060 46.642 66.492 0 7.040-2.097 12.766-6.522 17.796-9.792 11.132-27.328 12.668-37.933 3.315-2.198-1.941-11.332-12.361-20.298-23.159l-16.302-19.631-0.23 149.077c-0.127 57.886-0.127 152.29 0 209.792l0.23 188.209 17.515-21.083c17.718-21.327 21.684-25.055 28.664-26.944 5.988-1.622 15.91-0.549 20.652 2.233 5.574 3.27 11.102 9.802 12.913 15.26 2.016 6.074 1.481 15.252-1.206 20.699-2.301 4.663-80.14 98.656-87.544 105.711-5.824 5.548-11.096 7.589-19.605 7.589-5.105 0-7.034-0.481-11.839-2.952zM463.083 457.293l141.956-142.080-284.37-284.608v284.382c0 156.412 0.102 284.384 0.227 284.384s64.108-63.935 142.187-142.077zM968.201 314.534v-284.834l-142.187 142.302c-78.199 78.268-142.182 142.686-142.182 143.147 0 0.67 283.294 283.991 284.143 284.174 0.124 0.026 0.226-128.129 0.226-284.788zM786.62 133.483l142.182-142.306h-569.642l142.182 142.306c78.204 78.268 142.391 142.302 142.639 142.302 0.252 0 64.439-64.034 142.639-142.302z" />
<glyph unicode="&#xe965;" glyph-name="arrow-down" d="M151.456 622.039c12.497 12.497 32.758 12.497 45.255 0l278.186-278.185c20.356-20.361 53.854-20.361 74.21 0l278.187 278.185c12.497 12.497 32.759 12.497 45.257 0s12.497-32.758 0-45.255l-278.187-278.186c-45.35-45.35-119.373-45.35-164.723 0l-278.185 278.186c-12.497 12.497-12.497 32.758 0 45.255zM143.913 629.582c16.663 16.662 43.677 16.662 60.34 0l278.188-278.188c16.192-16.188 42.935-16.188 59.127 0l278.187 278.188c16.661 16.662 43.678 16.662 60.339 0s16.661-43.677 0-60.34l-278.187-278.187c-49.515-49.515-130.291-49.515-179.807 0l-278.187 278.187c-16.662 16.663-16.662 43.677 0 60.34zM189.168 614.497c-8.331 8.332-21.839 8.332-30.17 0s-8.331-21.839 0-30.17l278.186-278.185c41.186-41.186 108.454-41.186 149.636 0l278.187 278.185c8.333 8.331 8.333 21.839 0 30.17-8.329 8.332-21.837 8.332-30.17 0l-278.187-278.185c-24.521-24.525-64.772-24.525-89.297 0l-278.185 278.185z" />
<glyph unicode="&#xe966;" glyph-name="arrow-left" d="M686.037 808.547c-12.497 12.497-32.759 12.497-45.257 0l-278.185-278.188c-45.35-45.35-45.35-119.369 0-164.719l278.185-278.187c12.497-12.497 32.759-12.497 45.257 0s12.497 32.755 0 45.252l-278.187 278.187c-20.356 20.356-20.356 53.858 0 74.214l278.187 278.185c12.497 12.497 12.497 32.758 0 45.255zM693.581 816.090c-16.661 16.663-43.678 16.663-60.339 0l-278.188-278.187c-49.516-49.515-49.516-130.291 0-179.806l278.188-278.187c16.661-16.661 43.678-16.661 60.339 0s16.661 43.678 0 60.339l-278.188 278.187c-16.191 16.192-16.191 42.935 0 59.127l278.188 278.186c16.661 16.663 16.661 43.677 0 60.34zM648.324 801.005c8.333 8.331 21.841 8.331 30.17 0 8.333-8.331 8.333-21.839 0-30.17l-278.185-278.188c-24.522-24.521-24.522-64.772 0-89.293l278.185-278.187c8.333-8.333 8.333-21.841 0-30.174-8.329-8.329-21.837-8.329-30.17 0l-278.186 278.187c-41.184 41.186-41.184 108.454 0 149.641l278.186 278.185z" />
<glyph unicode="&#xe967;" glyph-name="arrow-right" d="M593.054 729.614c12.497 12.497 32.755 12.497 45.252 0l258.987-258.988c6.003-5.999 9.374-14.14 9.374-22.626s-3.371-16.627-9.374-22.626l-258.987-258.987c-12.497-12.497-32.755-12.497-45.252 0s-12.497 32.755 0 45.252l204.356 204.361h-648.077c-17.673 0-32 14.327-32 32s14.327 32 32 32h648.077l-204.356 204.359c-12.497 12.497-12.497 32.758 0 45.255zM585.51 737.157c16.661 16.662 43.678 16.662 60.339 0l258.987-258.987c8-8 12.497-18.854 12.497-30.17s-4.497-22.17-12.497-30.17l-258.987-258.987c-16.661-16.661-43.678-16.661-60.339 0s-16.661 43.678 0 60.339l186.15 186.15h-622.327c-23.564 0-42.667 19.102-42.667 42.667s19.103 42.667 42.667 42.667h622.327l-186.15 186.15c-16.661 16.663-16.661 43.677 0 60.34zM630.767 722.071c-8.333 8.332-21.841 8.332-30.174 0-8.329-8.331-8.329-21.839 0-30.17l204.361-204.358c3.051-3.051 3.964-7.642 2.313-11.627s-5.538-6.583-9.856-6.583h-648.077c-11.782 0-21.333-9.553-21.333-21.333s9.551-21.333 21.333-21.333h648.077c4.318 0 8.205-2.598 9.856-6.583s0.738-8.576-2.313-11.627l-204.361-204.356c-8.329-8.333-8.329-21.841 0-30.174 8.333-8.329 21.841-8.329 30.174 0l258.987 258.987c3.998 4.002 6.246 9.429 6.246 15.087s-2.249 11.085-6.246 15.087l-258.987 258.985z" />
<glyph unicode="&#xe968;" glyph-name="arrow-right-1" d="M337.956 808.549c12.497 12.497 32.758 12.497 45.255 0l278.187-278.185c45.35-45.35 45.35-119.373 0-164.723l-278.187-278.187c-12.497-12.497-32.758-12.497-45.255 0s-12.497 32.759 0 45.257l278.185 278.187c20.356 20.356 20.356 53.854 0 74.21l-278.185 278.187c-12.497 12.497-12.497 32.758 0 45.255zM330.414 816.091c16.662 16.662 43.677 16.662 60.34 0l278.188-278.187c49.515-49.516 49.515-130.293 0-179.808l-278.188-278.187c-16.663-16.661-43.677-16.661-60.34 0s-16.662 43.678 0 60.339l278.188 278.187c16.188 16.192 16.188 42.935 0 59.127l-278.188 278.188c-16.663 16.663-16.663 43.677 0 60.34zM375.668 801.006c-8.332 8.331-21.839 8.331-30.17 0s-8.331-21.839 0-30.17l278.186-278.186c24.525-24.525 24.525-64.777 0-89.297l-278.186-278.187c-8.331-8.333-8.331-21.841 0-30.17 8.331-8.333 21.839-8.333 30.17 0l278.185 278.187c41.186 41.182 41.186 108.45 0 149.636l-278.185 278.186z" />
<glyph unicode="&#xe969;" glyph-name="arrow-up" d="M151.456 273.958c12.497-12.497 32.758-12.497 45.255 0l278.186 278.187c20.356 20.357 53.854 20.357 74.21 0l278.187-278.187c12.497-12.497 32.759-12.497 45.257 0s12.497 32.759 0 45.257l-278.187 278.185c-45.35 45.35-119.373 45.35-164.723 0l-278.185-278.185c-12.497-12.497-12.497-32.759 0-45.257zM143.913 266.415c16.663-16.661 43.677-16.661 60.34 0l278.188 278.188c16.192 16.191 42.935 16.191 59.127 0l278.187-278.188c16.661-16.661 43.678-16.661 60.339 0 16.661 16.666 16.661 43.678 0 60.343l-278.187 278.185c-49.515 49.516-130.291 49.516-179.807 0l-278.187-278.185c-16.662-16.666-16.662-43.678 0-60.343zM189.168 281.502c-8.331-8.333-21.839-8.333-30.17 0s-8.331 21.837 0 30.17l278.186 278.187c41.186 41.184 108.454 41.184 149.636 0l278.187-278.187c8.333-8.333 8.333-21.837 0-30.17-8.329-8.333-21.837-8.333-30.17 0l-278.187 278.186c-24.521 24.522-64.772 24.522-89.297 0l-278.185-278.186z" />
<glyph unicode="&#xe96a;" glyph-name="automatic" d="M820.382 355.486v83.179l66.859-100.284c16.939-25.37 56.495-13.406 56.495 17.105v185.029c0 8.179-3.251 16.023-9.033 21.806-5.786 5.783-13.628 9.033-21.807 9.033s-16.021-3.249-21.807-9.033c-5.781-5.783-9.033-13.627-9.033-21.806v-83.179l-66.854 100.284c-16.943 25.37-56.495 13.405-56.495-17.105v-185.029c0-8.179 3.247-16.021 9.028-21.807 5.786-5.781 13.628-9.033 21.807-9.033s16.021 3.251 21.807 9.033c5.781 5.786 9.033 13.628 9.033 21.807zM943.735 108.779c0 40.896-16.247 80.115-45.163 109.030s-68.134 45.163-109.030 45.163c-8.179 0-16.021-3.251-21.807-9.033-5.781-5.786-9.028-13.628-9.028-21.807v-246.703c0-17.024 13.815-30.839 30.835-30.839 40.896 0 80.115 16.243 109.030 45.163 28.915 28.915 45.163 68.134 45.163 109.026zM882.057 108.779c0-24.533-9.745-48.064-27.098-65.417-9.847-9.847-21.692-17.25-34.577-21.807v174.447c12.885-4.557 24.73-11.955 34.577-21.803 17.353-17.353 27.098-40.883 27.098-65.421zM820.382 756.381c12.045 0 30.839 0 30.839 0 24.533 0 48.064 9.747 65.417 27.097 17.348 17.35 27.098 40.881 27.098 65.418s-9.749 48.067-27.098 65.417c-17.353 17.35-40.883 27.097-65.417 27.097h-61.679c-8.179 0-16.021-3.249-21.807-9.032-5.781-5.783-9.028-13.627-9.028-21.806v-246.705c0-8.179 3.247-16.023 9.028-21.806 5.786-5.783 13.628-9.033 21.807-9.033s16.021 3.249 21.807 9.033c5.781 5.783 9.033 13.627 9.033 21.806 0 0 0 56.385 0 92.515v61.676c0 24.086 0 61.676 0 61.676h30.839c8.175 0 16.021-3.249 21.803-9.033 5.786-5.783 9.033-13.627 9.033-21.806s-3.247-16.023-9.033-21.806c-5.781-5.783-13.628-9.032-21.803-9.032 0 0-18.799 0-30.839 0v-61.676zM203.618 636.145v-157.305c0-24.538 9.747-48.068 27.097-65.417 17.35-17.353 40.881-27.098 65.418-27.098h61.676c8.179 0 16.023-3.251 21.806-9.033 5.783-5.786 9.033-13.628 9.033-21.807v-185.028c0-24.538 9.747-48.068 27.097-65.417 17.348-17.353 40.883-27.098 65.417-27.098h123.354c8.179 0 16.021 3.247 21.807 9.033 5.781 5.781 9.033 13.628 9.033 21.807s-3.251 16.021-9.033 21.803c-5.786 5.786-13.628 9.033-21.807 9.033h-123.354c-8.179 0-16.021 3.251-21.807 9.033-5.781 5.786-9.028 13.628-9.028 21.807v185.028c0 24.538-9.749 48.068-27.099 65.417-17.35 17.353-40.881 27.098-65.417 27.098h-61.676c-8.179 0-16.023 3.251-21.806 9.033-5.783 5.786-9.032 13.628-9.032 21.807v157.305c0 23.288 1.441 58.562-30.838 58.562-33.040 0-30.838-35.521-30.838-58.562zM326.971 787.221c0-12.149-2.393-24.18-7.042-35.404s-11.464-21.423-20.055-30.014c-8.591-8.591-18.79-15.405-30.014-20.055s-23.255-7.042-35.404-7.042c-12.149 0-24.179 2.393-35.404 7.042s-21.423 11.464-30.014 20.055c-8.591 8.591-15.406 18.79-20.055 30.014s-7.043 23.255-7.043 35.404c0 24.536 9.747 48.067 27.097 65.417s40.881 27.097 65.417 27.097c24.536 0 48.068-9.747 65.418-27.097s27.097-40.881 27.097-65.417zM388.647 787.221c0 40.894-16.245 80.113-45.161 109.029s-68.136 45.161-109.030 45.161c-40.894 0-80.113-16.245-109.029-45.161s-45.161-68.135-45.161-109.029c0-40.894 16.245-80.113 45.161-109.030 21.537-21.537 48.788-36.044 78.191-42.047 10.075-2.057 20.402-3.115 30.838-3.115s20.763 1.058 30.838 3.115c29.402 6.002 56.655 20.51 78.191 42.047 28.916 28.916 45.161 68.135 45.161 109.030z" />
<glyph unicode="&#xe96b;" glyph-name="baby" d="M499.529 884.752c-147.332-4.144-282.551-82.419-360.347-208.596-16.663-27.026-31.851-59.208-41.077-87.036l-2.864-8.638-3.281-0.954c-5.095-1.481-22.895-10.402-29.090-14.58-27.923-18.83-46.958-43.927-56.934-75.073-5.022-15.676-5.902-21.837-5.934-41.515-0.026-15.663 0.194-18.999 1.757-26.718 6.158-30.396 22.737-59.447 44.951-78.775 12.329-10.726 28.159-20.322 42.915-26.014l5.615-2.167 1.69-5.137c11.084-33.719 28.377-69.367 48.734-100.463 68.207-104.179 177.083-174.562 299.004-193.293 25.924-3.985 35.703-4.668 66.918-4.668 31.232 0 41.050 0.687 66.923 4.672 79.893 12.301 153.062 45.837 216.316 99.145 13.483 11.362 38.43 36.314 49.792 49.792 35.2 41.766 61.67 87.842 79.599 138.551l4.045 11.443 8.32 3.281c21.060 8.299 42.795 24.614 57.25 42.97 13.218 16.781 23.031 37.884 27.354 58.837 11.068 53.606-11.102 109.769-56.047 141.966-7.932 5.682-25.779 15.138-32.683 17.313l-4.318 1.36-2.15 6.707c-7.066 22.016-23.394 57.974-36.262 79.85-69.222 117.712-186.27 195.993-319.846 213.91-21.525 2.887-49.587 4.415-70.349 3.831zM499.87 821.468c12.143-21.188 26.492-39.754 45.137-58.4 19.409-19.409 39.002-34.163 61.901-46.607 16.555-8.998 20.629-10.507 28.42-10.526 5.943-0.016 7.168 0.248 11.831 2.544 15.91 7.833 19.785 28.195 7.983 41.98-2.065 2.415-5.734 4.721-15.194 9.554-13.346 6.818-28.928 16.788-39.654 25.37-12.676 10.145-41.071 40.406-39.441 42.035 0.58 0.58 10.266-0.794 23.488-3.334 99.977-19.195 189.21-78.601 245.867-163.688 20.023-30.069 33.57-57.597 44.813-91.040 31.689-94.297 25.391-197.465-17.51-286.737-32.41-67.447-84.932-125.197-148.642-163.43-111.748-67.072-248.998-72.9-365.744-15.535-91.846 45.133-161.426 124.373-194.557 221.568-10.13 29.717-16.301 59.657-19.034 92.356-1.044 12.489-1.044 47.531 0.001 60.002 5.543 66.178 26.433 127.022 62.047 180.726 32.997 49.758 77.588 91.825 128.746 121.463l3.66 2.12 2.745-5.45c6.569-13.045 18.057-31.006 30.4-47.534 38.080-50.987 91.093-94.439 150.954-123.733 17.062-8.35 34.176-15.547 39.181-16.476 11.226-2.084 23.684 4.508 28.527 15.090 4.002 8.752 3.319 18.009-1.941 26.141-3.797 5.881-6.17 7.463-20.16 13.448-63.71 27.254-116.501 68.446-155.939 121.679-11.029 14.885-25.484 38.825-24.188 40.059 1.129 1.075 25.422 9.166 37.57 12.513 21.029 5.792 47.773 10.459 70.493 12.302 13.854 1.123 12.348 1.82 18.24-8.46zM77.75 500.493c-4.079-31.428-4.237-68.343-0.433-101.547 0.76-6.63 1.305-12.164 1.211-12.292s-2.296 2.325-4.895 5.449c-8.477 10.189-14.424 21.777-18.206 35.482-1.402 5.077-1.654 8.119-1.656 19.998-0.003 12.749 0.183 14.699 2.084 21.769 2.529 9.404 8.419 21.734 13.821 28.937 3.829 5.103 8.614 10.551 8.932 10.167 0.083-0.098-0.303-3.682-0.858-7.962zM952.815 499.482c2.057-2.697 5.372-8.060 7.369-11.921 7.040-13.632 9.724-24.768 9.711-40.26-0.017-15.991-3.494-28.962-11.452-42.714-4.143-7.164-12.783-18.116-13.231-16.777-0.158 0.478 0.247 5.717 0.896 11.644 3.695 33.63 3.482 69.41-0.597 101.611l-0.96 7.578 2.261-2.129c1.246-1.173 3.947-4.335 6.003-7.031zM340.012 478.281c-30.182-3.968-56.081-22.093-69.444-48.597-8.971-17.792-12.108-40.87-7.049-51.861 2.567-5.572 7.343-10.364 12.961-12.996 3.733-1.749 5.449-2.061 11.398-2.061 6.091 0 7.58 0.282 11.43 2.172 6.391 3.14 11.843 9.382 13.841 15.851 0.866 2.803 1.578 6.899 1.583 9.101 0.048 20.894 19.876 37.641 41.037 34.658 15.945-2.249 29.157-16.162 30.218-31.825 0.836-12.335 4.183-19.584 11.672-25.297 12.879-9.826 32.852-4.617 39.892 10.398 1.941 4.139 2.057 5.035 1.971 15.287-0.107 12.932-2.167 21.995-7.629 33.527-16.767 35.43-54.391 56.576-91.881 51.644zM662.157 478.242c-31.206-3.708-58.624-24.060-71.386-52.979-5.030-11.396-6.98-20.339-7.104-32.542-0.098-9.95 0.009-10.731 2.001-14.788 2.709-5.521 7.522-10.342 13.001-13.030 3.763-1.852 5.291-2.138 11.354-2.138 6.071 0 7.582 0.286 11.379 2.15 5.175 2.539 11.055 8.542 13.261 13.53 0.956 2.163 1.839 6.524 2.24 11.063 0.708 8.073 1.975 12.48 5.137 17.877 11.52 19.657 38.558 23.505 55.121 7.842 7.42-7.014 10.266-13.329 11.328-25.101 1.122-12.442 5.948-20.348 15.3-25.075 3.985-2.014 5.316-2.278 11.511-2.283 5.969-0.004 7.654 0.303 11.435 2.074 5.436 2.547 10.547 7.531 13.039 12.706 2.317 4.817 3.042 16.218 1.6 25.173-7.714 47.974-51.383 81.212-99.217 75.52zM479.629 369.092c-9.988-2.692-16.896-10.022-19.375-20.561-2.679-11.388 4.224-24.828 15.403-29.995 3.546-1.638 4.48-1.681 35.93-1.681h32.294l4.407 2.163c22.161 10.884 19.447 42.931-4.237 49.963-5.201 1.545-58.761 1.638-64.422 0.111zM405.237 274.931c-9.561-3.127-17.088-12.198-18.556-22.374-0.665-4.608 0.777-11.686 3.357-16.478 2.183-4.053 9.165-10.999 18.672-18.577 55.212-44.015 133.395-48.627 193.397-11.418 15.241 9.451 32.247 24.367 35.401 31.040 6.515 13.786 1.289 29.436-12.087 36.207-4.049 2.052-5.257 2.278-11.9 2.27-9.34-0.013-12.228-1.331-21.598-9.847-14.993-13.632-31.893-22.793-50.688-27.482-37.521-9.365-76.681 0.708-105.719 27.183-8.683 7.919-12.825 9.967-20.804 10.287-3.822 0.154-7.479-0.162-9.475-0.811z" />
<glyph unicode="&#xe96c;" glyph-name="bag02" d="M398.49 897.325c12.514-12.48 12.542-32.741 0.062-45.255l-109.368-109.67h445.635l-109.372 109.67c-12.476 12.514-12.45 32.775 0.064 45.255s32.777 12.452 45.257-0.062l154.436-154.863h18.743c25.259 0 58.586-0.89 84.847-18.479 29.705-19.896 41.873-54.135 41.873-98.854 0-48.781-11.017-85.954-43.703-104.794-7.846-4.523-16.026-7.369-23.979-9.19l-68.57-357.53c-7.548-39.407-17.404-83.089-48.119-115.273-32.081-33.617-80.631-48.947-150.989-48.947h-257.28c-66.211 0-114.482 16.542-147.677 50.155-32.292 32.704-45.291 76.715-52.43 119.996l-57.397 351.714c-7.799 1.822-15.801 4.646-23.488 9.075-32.687 18.84-43.701 56.012-43.701 104.794 0 44.719 12.168 78.958 41.872 98.854 26.262 17.59 59.59 18.479 84.848 18.479h18.745l154.436 154.863c12.48 12.514 32.741 12.542 45.255 0.062zM185.935 507.733l55.132-337.83c6.514-39.479 16.772-67.166 34.823-85.444 17.152-17.374 46.321-31.125 102.137-31.125h257.28c62.336 0 89.946 13.683 104.691 29.133 16.111 16.883 23.748 42.321 31.561 83.127l65.617 342.14h-651.241zM130.821 670.746c-4.535-3.037-13.488-11.465-13.488-45.679 0-42.64 9.959-48.364 11.623-49.321 2.492-1.436 7.156-2.978 16.502-3.665 7.126-0.524 14.469-0.468 23.589-0.4 3.395 0.026 7.037 0.053 11.006 0.053h663.893c3.968 0 7.612-0.027 11.008-0.053 9.118-0.068 16.461-0.123 23.586 0.4 9.348 0.687 13.973 2.208 16.465 3.645 1.668 0.957 11.661 6.702 11.661 49.341 0 34.214-8.951 42.642-13.487 45.679-7.979 5.344-22.012 7.654-49.233 7.654h-663.893c-27.223 0-41.254-2.31-49.232-7.654zM416.427 394.667c17.673 0 32-14.327 32-32v-151.467c0-17.673-14.327-32-32-32s-32 14.327-32 32v151.467c0 17.673 14.327 32 32 32zM612.693 394.667c17.673 0 32-14.327 32-32v-151.467c0-17.673-14.327-32-32-32s-32 14.327-32 32v151.467c0 17.673 14.327 32 32 32z" />
<glyph unicode="&#xe96d;" glyph-name="baggage" d="M339.675 958.498c-10.432-3.807-17.698-14.39-17.722-25.813-0.032-15.123 10.769-26.61 26.547-28.232l5.338-0.549v-72.049l-42.063-0.459c-38.382-0.419-42.902-0.644-51.65-2.566-25.154-5.524-45.968-16.759-63.746-34.406-18.042-17.908-29.554-39.581-34.503-64.955-1.813-9.296-1.871-18.883-1.871-313.205 0-333.385-0.416-310.080 5.889-329.609 6.025-18.667 15.371-33.626 30.509-48.845 15.248-15.33 30.636-24.828 50.431-31.134 13.773-4.386 25.381-5.995 43.294-5.999l15.497-0.004v-20.945c0-23.518 0.559-26.411 6.498-33.63 1.936-2.351 5.804-5.47 8.596-6.925 4.27-2.227 6.325-2.65 12.947-2.667 6.906-0.017 8.518 0.337 13.141 2.889 6.396 3.529 10.364 8.128 12.952 15.014 1.714 4.561 1.948 7.65 1.948 25.724v20.54h299.961l0.311-21.803c0.286-19.87 0.503-22.208 2.432-26.364 4.335-9.335 15.322-16.508 25.293-16.508 7.829 0 14.242 2.65 19.789 8.175 7.723 7.689 8.393 10.522 8.393 35.49v20.783l19.43 0.508c20.352 0.533 27.682 1.634 41.574 6.234 43.375 14.366 76.587 53.73 83.789 99.319 1.079 6.822 1.318 63.023 1.318 310.639 0 287.59-0.085 302.735-1.775 311.008-10.633 52.035-47.262 89.347-98.837 100.675-8.747 1.922-13.269 2.146-51.648 2.566l-42.065 0.459v72.044l6.097 0.635c8 0.832 13.551 3.624 18.816 9.454 10.594 11.736 9.429 29.466-2.611 39.731-7.949 6.774 5.111 6.324-180.642 6.247-142.796-0.059-168.399-0.278-171.659-1.468zM613.594 867.92v-36.258h-203.672v72.515h203.672v-36.258zM760.196 772.059c10.167-3.62 19.558-9.663 27.678-17.814 5.961-5.984 8.444-9.433 12.049-16.75 8.239-16.727 7.501 14.865 7.501-321.375 0-295.846-0.030-300.595-1.941-308.032-5.931-23.113-23.33-40.866-48.239-49.246-5.201-1.749-14.473-1.83-240.567-2.116-173.261-0.222-237.099-0.004-242.536 0.823-15.132 2.304-28.22 9.399-39.639 21.491-8.324 8.811-13.389 18.022-16.436 29.888-1.957 7.625-1.975 10.496-1.975 307.243 0 294.739 0.032 299.667 1.936 307.088 4.9 19.081 18.215 35.626 35.453 44.055 16.55 8.093-7.915 7.415 260.246 7.208l240.077-0.186 6.396-2.277zM339.675 684.115c-6.052-2.209-11.972-7.683-15.042-13.908l-2.773-5.624v-497.808l2.327-4.668c3.25-6.511 10.529-12.753 17.386-14.899 13.393-4.194 28.064 2.526 34.019 15.582 1.751 3.84 1.815 12.911 1.763 252.89-0.041 187.98-0.336 249.667-1.208 252.023-4.015 10.847-14.485 18.003-26.156 17.88-3.566-0.038-8.208-0.699-10.316-1.468zM502.161 684.253c-7.846-2.789-14.246-9.492-16.9-17.711-1.442-4.46-1.562-27.171-1.318-252.826l0.265-247.923 2.223-4.139c10.893-20.309 38.635-21.005 49.826-1.25l3.051 5.389 0.252 248.384c0.286 277.657 0.926 253.364-6.908 262.228-5.538 6.266-12.13 9.236-20.403 9.193-3.516-0.018-8.055-0.623-10.086-1.346zM662.276 683.341c-6.281-2.912-10.97-7.585-13.892-13.838l-2.304-4.92-0.009-247.994c-0.009-274.974-0.563-252.736 6.464-260.907 7.718-8.986 22.741-12.279 33.007-7.249 6.007 2.944 11.465 8.333 14.029 13.862l2.082 4.48v498.788l-2.918 5.251c-5.508 9.903-14.025 14.846-25.545 14.828-4.181-0.007-7.458-0.697-10.914-2.301z" />
</font>
</defs>
</svg>
